<?xml version="1.0" standalone="no"?>
<!DOCTYPE svg PUBLIC "-//W3C//DTD SVG 1.1//EN" "http://www.w3.org/Graphics/SVG/1.1/DTD/svg11.dtd" >
<svg xmlns="http://www.w3.org/2000/svg" xmlns:xlink="http://www.w3.org/1999/xlink" version="1.1">
<metadata></metadata>
<defs>
<font id="juanaregular" horiz-adv-x="1632" >
<font-face units-per-em="2048" ascent="1638" descent="-410" />
<missing-glyph horiz-adv-x="493" />
<glyph unicode="&#xfb01;" horiz-adv-x="1120" d="M43 1036v25h127v100q0 195 109.5 309.5t310.5 114.5q190 0 354 -112l-86 -205h-12q-10 52 -29 99t-48.5 91.5t-76 71t-102.5 26.5q-221 0 -221 -333v-162h598v-903q0 -50 18.5 -91t54.5 -55v-12h-342v12q36 14 54 55t18 91v878h-401v-878q0 -50 18.5 -91t54.5 -55v-12 h-344v12q72 28 72 146v878h-127z" />
<glyph unicode="&#xfb02;" horiz-adv-x="1140" d="M43 1036v25h129v135q0 179 101 284t288 105q159 0 258 -61q89 31 144 57h12v-1423q0 -49 19 -90.5t55 -55.5v-12h-344v12q36 14 53.5 55t17.5 91v1099q-9 155 -57 227t-146 72q-204 0 -204 -292v-203h286v-25h-286v-878q0 -50 18.5 -91t54.5 -55v-12h-342v12 q72 28 72 146v878h-129z" />
<glyph horiz-adv-x="0" />
<glyph horiz-adv-x="682" />
<glyph unicode=" "  horiz-adv-x="493" />
<glyph unicode="&#x09;" horiz-adv-x="493" />
<glyph unicode="&#xa0;" horiz-adv-x="493" />
<glyph unicode="!" horiz-adv-x="518" d="M109 57q0 60 44 104t107 44q61 0 104.5 -44t43.5 -104q0 -63 -43 -107t-105 -44t-106.5 45t-44.5 106zM154 1343q-11 73 16 116.5t92 43.5q66 0 92 -43t15 -117l-99 -1050h-20z" />
<glyph unicode="&#x22;" horiz-adv-x="653" d="M74 1690h194l-96 -480h-12zM391 1690h193l-95 -480h-12z" />
<glyph unicode="#" horiz-adv-x="1536" d="M74 508v41h319l174 471h-424v41h441l155 422h45l-157 -422h522l156 422h45l-156 -422h272v-41h-288l-174 -471h393v-41h-408l-188 -508h-45l188 508h-522l-189 -508h-43l189 508h-305zM438 549h520l175 471h-521z" />
<glyph unicode="$" horiz-adv-x="1146" d="M94 354h10q11 -75 44.5 -132.5t77.5 -91t101 -54.5t107 -28t103 -7h18v612q-168 84 -206 107q-161 95 -213 210q-30 67 -30 146q0 168 123.5 272t323.5 115v127h35v-127h2q75 0 145.5 -19.5t135 -60.5t107.5 -115t52 -173h-10q-11 75 -44.5 133t-76.5 92t-98.5 55.5 t-103.5 29t-97 7.5h-12v-575q10 -5 29 -14q47 -22 70.5 -34t67 -35t67.5 -39.5t60 -42.5t56 -49t44.5 -55t37 -64.5t21 -72.5t8.5 -84q0 -177 -123.5 -283.5t-337.5 -117.5v-144h-33v144h-8q-81 0 -154 19.5t-139 60.5t-109 115t-51 173zM274 1198q0 -55 21 -100.5t63 -82.5 t86 -63.5t109 -58.5v557q-130 -10 -204.5 -78t-74.5 -174zM588 43q136 9 210 74t74 180q0 61 -21.5 112t-64.5 92t-87.5 70.5t-110.5 63.5v-592z" />
<glyph unicode="%" horiz-adv-x="1888" d="M63 1098q-1 109 53 202.5t148.5 149t204.5 55.5q168 0 285.5 -120t119.5 -287q0 -169 -118.5 -289.5t-286.5 -120.5t-287 120.5t-119 289.5zM215 1102q0 -175 68.5 -280t185.5 -105q114 0 183 106t69 279q0 170 -69 271.5t-183 101.5q-117 0 -185.5 -102t-68.5 -271z M418 0l995 1483h47l-997 -1483h-45zM1014 395q0 167 119 287.5t288 120.5q168 0 286 -120.5t118 -287.5q1 -111 -52.5 -205t-147 -149t-204.5 -55q-169 0 -287 119.5t-120 289.5zM1167 399q0 -175 68.5 -280t185.5 -105q114 0 183 106t69 279q0 170 -69 271.5t-185 101.5 q-115 0 -183.5 -102t-68.5 -271z" />
<glyph unicode="&#x26;" horiz-adv-x="1576" d="M84 367q0 146 89.5 242.5t289.5 160.5q-101 106 -154 191t-53 176q0 177 118.5 274.5t311.5 97.5q191 0 297.5 -78t106.5 -214q0 -89 -58.5 -169t-149 -135t-204.5 -92q25 -23 74 -76l405 -436q119 164 119 348q0 57 -46 103.5t-106 46.5v14h377v-14q-51 -3 -89.5 -41 t-57.5 -102q-75 -238 -174 -379l84 -88q71 -75 137 -124.5t135 -58.5v-14h-344l-135 145q-188 -159 -486 -159q-138 0 -246 41t-174.5 128.5t-66.5 211.5zM287 393q0 -166 94.5 -265t255.5 -99q211 0 393 145l-409 438l-127 127q-123 -60 -165 -140t-42 -206zM440 1217 q0 -52 14.5 -99.5t47.5 -95t64 -82.5t85 -90q134 46 208.5 149.5t74.5 229.5q0 122 -65.5 187t-182.5 63q-114 0 -180 -72.5t-66 -189.5z" />
<glyph unicode="'" horiz-adv-x="337" d="M74 1690h194l-96 -480h-12z" />
<glyph unicode="(" horiz-adv-x="612" d="M86 760q0 532 508 846l6 -13q-83 -64 -148 -167.5t-102 -219.5t-55.5 -229.5t-18.5 -216.5q0 -265 81.5 -491t244.5 -369l-8 -11q-110 75 -196 158.5t-159 190t-112.5 239t-40.5 283.5z" />
<glyph unicode=")" horiz-adv-x="612" d="M10 -100q163 143 244.5 369t81.5 491q0 103 -18.5 216.5t-55.5 229.5t-102 219.5t-148 167.5l6 13q508 -314 508 -846q0 -121 -27 -232t-72.5 -200t-112 -171t-138 -145t-158.5 -123z" />
<glyph unicode="*" horiz-adv-x="937" d="M117 1290q0 32 21 53t52 21q28 0 62 -25t96 -82t113 -96q-15 73 -33.5 137.5t-27.5 95.5t-9 50q0 36 21.5 60t56.5 24q38 0 57 -22.5t19 -59.5q0 -17 -9.5 -47.5t-27.5 -94.5t-33 -143q53 40 114 96t94.5 81.5t61.5 25.5q31 0 52.5 -21t21.5 -53q0 -46 -51 -71 q-14 -7 -44.5 -13t-97.5 -20t-143 -35q74 -21 141 -38t95 -24.5t43 -13.5q55 -22 55 -69q0 -33 -21.5 -54.5t-52.5 -21.5q-27 0 -60.5 27t-92 83t-111.5 95q15 -70 32 -129.5t25.5 -88t8.5 -45.5q0 -37 -19 -59t-57 -22q-35 0 -56.5 23t-21.5 60q0 17 8.5 47t26 90t31.5 126 q-52 -40 -111 -96.5t-92.5 -83.5t-60.5 -27q-31 0 -52.5 21.5t-21.5 54.5q0 47 57 69q12 5 42 11.5t94 23t143 41.5q-77 21 -143.5 35t-98 20t-45.5 13q-51 25 -51 71z" />
<glyph unicode="+" horiz-adv-x="845" d="M94 606v33h301v291h41v-291h316v-33h-316v-334h-41v334h-301z" />
<glyph unicode="," horiz-adv-x="503" d="M94 -233q80 24 136.5 90t60.5 151q-18 -6 -47 -6q-61 0 -99.5 35.5t-38.5 93.5q0 60 41 101.5t101 41.5q64 0 104.5 -47t40.5 -129q0 -114 -80 -216t-213 -134l-6 16v3z" />
<glyph unicode="-" horiz-adv-x="847" d="M68 694v41h712v-41h-712z" />
<glyph unicode="." horiz-adv-x="483" d="M102 115q0 57 41 98t99 41q57 0 98 -41t41 -98q0 -58 -41 -100t-98 -42q-58 0 -99 43t-41 99z" />
<glyph unicode="/" horiz-adv-x="1126" d="M41 0l995 1483h51l-997 -1483h-49z" />
<glyph unicode="0" horiz-adv-x="1456" d="M98 743q0 169 51 313.5t137.5 241t201.5 151t241 54.5t240.5 -54.5t200.5 -151.5t137 -241t51 -313q0 -168 -51 -312t-137 -240.5t-200.5 -150.5t-240.5 -54t-241 54t-201.5 150.5t-137.5 240.5t-51 312zM324 745q0 -353 112 -542t293 -189q180 0 292 189t112 542 t-112 541.5t-292 188.5q-181 0 -293 -188.5t-112 -541.5z" />
<glyph unicode="1" horiz-adv-x="634" d="M63 1311v8q211 81 367 194h6v-1335q0 -51 31 -101t70 -65v-12h-408v12q39 15 69.5 64.5t30.5 101.5v1020q0 113 -108 113h-58z" />
<glyph unicode="2" horiz-adv-x="1112" d="M53 0v18q164 155 284.5 286t221.5 267t153 262.5t52 239.5q0 149 -79.5 236.5t-219.5 87.5q-97 0 -170.5 -31.5t-115 -85t-63 -114t-24.5 -128.5h-10q2 88 31.5 169.5t83.5 148.5t140 107t191 40q203 0 324 -104.5t121 -282.5q0 -52 -13 -105.5t-33 -101.5t-55.5 -102.5 t-68.5 -98t-85 -99t-92 -94.5t-102.5 -95.5t-102.5 -91.5t-107 -92.5t-103 -88.5h569q165 0 256 156h11l-99 -303h-895z" />
<glyph unicode="3" horiz-adv-x="1105" d="M76 369h10q2 -117 109 -213.5t256 -96.5q155 0 247.5 97t92.5 254q0 94 -31.5 166t-86.5 115.5t-126 65t-154 21.5h-51v15q410 3 410 348q0 140 -74.5 215.5t-212.5 75.5q-135 0 -238.5 -95t-105.5 -207h-10q0 64 26.5 128t77 119.5t135 90.5t187.5 35q189 0 307.5 -95 t118.5 -249q0 -65 -22.5 -121t-57.5 -95t-82.5 -70t-94 -49t-94.5 -29q50 -9 100 -26t104 -49.5t95.5 -74t68 -103.5t26.5 -134q0 -190 -143.5 -306t-364.5 -116q-82 0 -152.5 23.5t-119 62.5t-83 89t-51 103t-16.5 105z" />
<glyph unicode="4" horiz-adv-x="1114" d="M0 459v28l836 1024h28v-1019h203v-33h-203v-281q0 -51 31 -101t70 -65v-12h-408v12q39 15 69.5 64.5t30.5 101.5v281h-657zM49 492h608v743z" />
<glyph unicode="5" horiz-adv-x="1142" d="M55 344h11q2 -117 107 -208t273 -91t267.5 98.5t99.5 284.5q0 181 -87 294.5t-239 113.5q-99 0 -173.5 -28t-159.5 -79l-11 10l154 752h539q184 0 256 127h10l-96 -275h-705l-111 -567q74 53 162 82.5t226 26.5q127 -2 227 -54t159.5 -154t59.5 -241q0 -145 -74 -248.5 t-194 -152.5t-273 -49q-84 0 -156 22t-121 58t-84 83t-51 96.5t-16 98.5z" />
<glyph unicode="6" horiz-adv-x="1247" d="M102 692q0 235 79 420.5t217 288t309 102.5q183 0 286.5 -107t116.5 -274h-10q-23 139 -115 228.5t-235 89.5q-89 0 -166 -44t-138 -130t-96 -226t-35 -319v-72q57 106 167.5 173t238.5 67q113 0 213 -54t162.5 -153t62.5 -219q0 -212 -144 -344.5t-368 -132.5 q-253 0 -399 190.5t-146 515.5zM315 580q0 -284 85.5 -424t240.5 -140q313 0 313 424q0 191 -76 295.5t-210 104.5q-108 0 -201.5 -60.5t-151.5 -152.5v-47z" />
<glyph unicode="7" horiz-adv-x="1007" d="M18 1186l97 305h929v-21q-156 -212 -261.5 -402.5t-166.5 -369.5t-87 -345t-27 -353h-236q-3 87 45 244t132.5 342t216 390.5t278.5 366.5h-655q-100 0 -158.5 -42.5t-97.5 -114.5h-9z" />
<glyph unicode="8" horiz-adv-x="1218" d="M90 352q0 134 105.5 235.5t279.5 164.5l-49 26q-266 146 -266 367q0 151 132.5 254.5t336.5 103.5q209 0 329.5 -95.5t120.5 -233.5q1 -65 -27 -122.5t-77.5 -101.5t-105.5 -77t-121 -58l63 -33q157 -92 231 -185.5t74 -211.5q0 -124 -71 -216t-188.5 -137.5 t-262.5 -45.5q-229 0 -366.5 101t-137.5 265zM254 371q0 -161 92.5 -258t257.5 -97q155 0 246.5 78t91.5 228q0 89 -51 159.5t-178 139.5l-221 120q-132 -59 -185 -143.5t-53 -226.5zM322 1210q0 -83 46.5 -148t153.5 -124l207 -113q193 106 193 328q0 152 -74.5 236 t-224.5 84q-135 0 -218 -72.5t-83 -190.5z" />
<glyph unicode="9" horiz-adv-x="1249" d="M90 1026q0 213 143.5 345t368.5 132q252 0 398.5 -190.5t146.5 -515.5q0 -234 -79 -420t-216.5 -288.5t-308.5 -102.5q-183 0 -287 107.5t-117 273.5h11q23 -143 111.5 -231.5t238.5 -88.5q88 0 165.5 44.5t138 130t95.5 225t35 315.5v74q-55 -107 -166 -174.5 t-242 -67.5q-112 0 -211.5 54t-162 154.5t-62.5 223.5zM295 1049q0 -196 75.5 -301t209.5 -105q109 0 201 60t153 153v53q0 284 -85.5 424t-240.5 140q-313 0 -313 -424z" />
<glyph unicode=":" horiz-adv-x="530" d="M127 121q0 57 40.5 97t98.5 40t99 -40t41 -97q0 -59 -41 -100t-99 -41t-98.5 42.5t-40.5 98.5zM127 637q0 57 40.5 98t98.5 41t99 -41t41 -98q0 -58 -40.5 -98.5t-99.5 -40.5q-58 0 -98.5 41.5t-40.5 97.5z" />
<glyph unicode=";" horiz-adv-x="552" d="M125 -248q79 24 136 90.5t61 151.5q-18 -6 -50 -6q-59 0 -97 35.5t-38 93.5q0 60 40.5 101.5t101.5 41.5q64 0 104.5 -46t40.5 -128q0 -74 -34 -145.5t-102 -128t-157 -78.5l-6 16v2zM137 639q0 57 41 97t101 40q57 0 97 -40t40 -97q0 -60 -40 -100.5t-97 -40.5 q-59 0 -100.5 42.5t-41.5 98.5z" />
<glyph unicode="&#x3c;" horiz-adv-x="892" d="M102 557v39l633 297v-39l-573 -279l573 -272v-43z" />
<glyph unicode="=" horiz-adv-x="935" d="M139 471v33h658v-33h-658zM139 668v32h658v-32h-658z" />
<glyph unicode="&#x3e;" horiz-adv-x="892" d="M156 260v43l575 272l-575 279v39l632 -297v-39z" />
<glyph unicode="?" horiz-adv-x="1019" d="M59 1077q1 76 33 151.5t89.5 137t146.5 99.5t194 38q183 0 305.5 -106t122.5 -269q0 -77 -26.5 -144t-69 -116.5t-94.5 -95t-103.5 -88.5t-94 -88t-69 -103t-26.5 -124v-62h-25v62q0 66 15.5 125.5t40.5 104.5t54.5 87.5t59.5 84.5t55 85t40.5 99t15.5 118 q0 160 -85.5 240t-211.5 80q-89 0 -168 -39.5t-129 -113t-51 -163.5h-19zM307 59q0 60 43.5 103t104.5 43q60 0 102.5 -43t42.5 -103q0 -61 -42.5 -104t-102.5 -43q-61 0 -104.5 44t-43.5 103z" />
<glyph unicode="@" horiz-adv-x="1718" d="M86 444q0 191 62 351.5t169 269t253.5 169t314.5 60.5q211 0 381 -86t269 -247.5t99 -370.5q0 -120 -42.5 -219t-110.5 -160t-149 -94t-163 -33q-135 0 -243 100q-68 -51 -118.5 -75.5t-111.5 -24.5q-129 0 -192.5 78.5t-63.5 204.5q0 104 42 202t107.5 166.5t147 110 t160.5 41.5q129 0 203 -133l24 67q64 3 119 25h6l-188 -588q-19 -55 21.5 -91t117.5 -36q61 0 122.5 31.5t113 88t84 146t32.5 195.5q0 137 -53 262t-142.5 215.5t-211.5 144t-256 54.5q-117 0 -226 -39t-198 -112.5t-156 -172t-104 -224.5t-37 -263q0 -149 53 -289.5 t145 -247t225.5 -171t285.5 -64.5q102 0 194 23.5t155.5 56t126.5 85t99 92t80 95.5h2l6 -6q-5 -7 -29 -38t-35.5 -45.5t-40 -47t-49.5 -51t-56.5 -47.5t-67.5 -46.5t-77 -38t-90 -32t-101.5 -19.5t-116.5 -8q-171 0 -320 62t-251.5 168t-161 250.5t-58.5 305.5zM602 469 q-34 -148 5.5 -249t129.5 -101q45 0 93.5 25.5t84.5 70.5l170 516q-16 48 -59.5 87.5t-107.5 39.5q-70 0 -136 -57t-112 -144.5t-68 -187.5z" />
<glyph unicode="A" horiz-adv-x="1316" d="M-25 0v16q26 12 44.5 25t33.5 35t20 29.5t18.5 40t14.5 34.5l533 1311h27l553 -1313q3 -8 12.5 -29.5t13.5 -31t14 -27t19.5 -28.5t25 -25t33.5 -25v-12h-411v12q27 14 44.5 29t30 35.5t11.5 48t-15 61.5l-110 271h-625l-98 -244q-14 -35 -14 -65q0 -81 98 -132v-16h-273 zM276 492h596l-299 739z" />
<glyph unicode="B" horiz-adv-x="1318" d="M119 0v12q78 31 78 160v1147q0 129 -78 160v12h563q231 0 353 -82.5t122 -243.5q0 -123 -91.5 -204t-272.5 -105q205 -29 319.5 -138t114.5 -278q-1 -110 -43.5 -194.5t-120.5 -138t-185.5 -80.5t-240.5 -27h-518zM403 27h213q387 0 390 428q0 186 -97.5 287.5 t-251.5 101.5h-254v-817zM403 870h254q134 0 206.5 73.5t72.5 221.5q0 85 -24.5 144.5t-71 92.5t-104.5 47.5t-134 14.5h-199v-594z" />
<glyph unicode="C" horiz-adv-x="1325" d="M96 743q0 218 88.5 391t250.5 271t370 98q254 0 463 -166l-103 -207h-10q-151 343 -373 343q-134 0 -238 -87.5t-160 -240t-56 -342.5q2 -300 144 -488t378 -188q116 0 223.5 52t177.5 155l9 -12q-75 -157 -201.5 -246.5t-308.5 -89.5q-137 0 -257 55t-208 152.5 t-138.5 240t-50.5 309.5z" />
<glyph unicode="D" horiz-adv-x="1501" d="M119 0v12q37 14 57.5 56t20.5 90v1175q0 48 -20.5 90t-57.5 56v12h536q211 0 382.5 -93t271.5 -266t100 -395q0 -157 -59.5 -294.5t-161 -234t-241.5 -152.5t-296 -56h-532zM403 29h244q243 0 386 183t143 527q0 353 -141 538t-384 185h-248v-1433z" />
<glyph unicode="E" horiz-adv-x="1193" d="M119 0v12q37 14 57.5 56t20.5 90v1175q0 48 -20.5 90t-57.5 56v12h903l49 -277h-8q-21 50 -51 91.5t-75.5 79t-111.5 58.5t-147 21h-275v-635h324q53 0 91 50t54 125h13v-379h-13q-17 73 -54.5 122.5t-90.5 49.5h-324v-760h334q294 0 400 239h10l-51 -276h-977z" />
<glyph unicode="F" horiz-adv-x="1093" d="M119 0v12q37 14 57.5 56t20.5 90v1175q0 48 -20.5 90t-57.5 56v12h887l49 -277h-8q-21 48 -51 88.5t-74.5 79t-109 60.5t-142.5 22h-267l3 -655h286q50 0 97.5 52t62.5 122h12v-375h-12q-15 68 -62 120t-98 52h-286v-622q0 -49 20.5 -90.5t56.5 -55.5v-12h-364z" />
<glyph unicode="G" horiz-adv-x="1476" d="M92 748q0 156 52.5 294t147 240.5t236 161.5t310.5 59q121 0 245 -37t205 -88l-55 -219h-8q-49 128 -154.5 222t-224.5 94q-112 0 -207 -48t-164.5 -137.5t-109 -226t-39.5 -305.5q0 -344 139 -544t360 -200q170 0 320 115v436q0 50 -20.5 91t-57.5 55v12h350v-12 q-37 -15 -58.5 -56t-21.5 -90v-428q-94 -66 -236 -108.5t-278 -42.5q-165 0 -303.5 60t-231.5 163.5t-144.5 242.5t-51.5 296z" />
<glyph unicode="H" horiz-adv-x="1570" d="M119 0v12q37 14 57.5 56t20.5 90v1175q0 48 -20.5 90t-57.5 56v12h364v-12q-37 -14 -58.5 -56t-21.5 -90v-502h764v502q0 49 -20.5 90.5t-56.5 55.5v12h364v-12q-37 -14 -58.5 -56t-21.5 -90v-1175q0 -48 21.5 -90t58.5 -56v-12h-364v12q36 14 56.5 55.5t20.5 90.5v639 h-764v-639q0 -48 21.5 -90t58.5 -56v-12h-364z" />
<glyph unicode="I" horiz-adv-x="600" d="M119 0v12q37 14 57.5 56t20.5 90v1175q0 48 -20.5 90t-57.5 56v12h364v-12q-37 -14 -58.5 -56t-21.5 -90v-1175q0 -48 21.5 -90t58.5 -56v-12h-364z" />
<glyph unicode="J" horiz-adv-x="645" d="M47 -4v14q13 -2 26 -2q21 0 43 6q33 8 66 33t53.5 80.5t20.5 134.5v1071q0 48 -21.5 90t-58.5 56v12h369v-12q-37 -15 -59.5 -56.5t-22.5 -89.5v-1014q0 -94 -29 -163t-73 -104t-101 -52q-55 -16 -105 -16h-5q-53 1 -103 12z" />
<glyph unicode="K" horiz-adv-x="1378" d="M119 0v12q37 14 57.5 56t20.5 90v1175q0 48 -20.5 90t-57.5 56v12h364v-12q-37 -14 -58.5 -56t-21.5 -90v-715l639 728q26 31 26 59q0 41 -54 76v10h266v-10q-127 -56 -186 -127l-346 -396l464 -727q2 -3 19.5 -31t24 -37.5t24 -34t29 -37t29 -30.5t35 -29.5t36.5 -19.5 v-12h-360v12q25 14 26.5 42t-13 59t-42.5 73l-399 627l-218 -248v-407q0 -48 21.5 -90t58.5 -56v-12h-364z" />
<glyph unicode="L" horiz-adv-x="1136" d="M119 0v12q37 14 57.5 56t20.5 90v1175q0 48 -20.5 90t-57.5 56v12h362v-12q-37 -14 -57.5 -56t-20.5 -90v-1306h320q79 0 144.5 21t110.5 58t75 78.5t51 91.5h10l-51 -276h-944z" />
<glyph unicode="M" horiz-adv-x="1761" d="M111 0v12q40 30 63 74.5t23 87.5v1159q0 48 -20.5 90t-57.5 56v12h276l506 -1208l508 1208h233v-12q-36 -14 -56.5 -55.5t-20.5 -90.5v-1175q0 -48 21.5 -90t58.5 -56v-12h-365v12q37 14 57.5 56t20.5 90v1120l-533 -1278h-12l-582 1360v-1186q0 -41 26.5 -87t66.5 -75 v-12h-213z" />
<glyph unicode="N" horiz-adv-x="1474" d="M111 0v12q88 66 88 168v1096q0 170 -80 201v14h182l946 -1180v1000q0 101 -86 168v12h209v-12q-88 -67 -88 -168v-1311h-27l-1024 1270v-1090q0 -101 91 -168v-12h-211z" />
<glyph unicode="O" d="M92 748q0 160 56 300.5t152.5 240t230.5 157t284 57.5q151 0 285 -57t230 -155.5t152 -238.5t56 -300q0 -162 -56 -304.5t-152 -243.5t-230 -159.5t-285 -58.5q-150 0 -284 57.5t-230.5 158t-152.5 242.5t-56 304zM326 750q0 -181 37.5 -323t104.5 -231t155 -135.5 t192 -46.5q105 0 193.5 46.5t155 135.5t104.5 231t39 323q0 177 -38 317t-105 228t-155.5 134t-193.5 46q-104 0 -192 -46t-155 -134t-104.5 -228t-37.5 -317z" />
<glyph unicode="P" horiz-adv-x="1290" d="M119 0v12q37 14 57.5 56t20.5 90v1175q0 115 -78 146v12h424q351 0 521.5 -115t170.5 -366q0 -231 -178 -352t-514 -121h-140v-379q0 -48 21.5 -90t58.5 -56v-12h-364zM403 563h154q223 0 339 104t116 337q0 129 -29.5 218.5t-89.5 142.5t-141.5 76t-194.5 23h-154v-901z " />
<glyph unicode="Q" d="M92 748q0 160 56 300.5t152.5 240t230.5 157t284 57.5q151 0 285 -57t230 -155.5t152 -238.5t56 -300q0 -161 -55 -302.5t-150 -242t-226.5 -160t-279.5 -61.5l56 -52q59 -54 118.5 -79t149.5 -25q56 0 111.5 21.5t89.5 58.5h10l53 -143q-32 -27 -81 -45.5t-97 -18.5 q-44 0 -75.5 4.5t-75.5 19.5t-90.5 50.5t-96.5 91.5l-106 117q-146 4 -275.5 63.5t-223 159.5t-148 240t-54.5 299zM326 750q0 -181 37.5 -323t104.5 -231t155 -135.5t192 -46.5q105 0 193.5 46.5t155 135.5t104.5 231t39 323q0 177 -38 317t-105 228t-155.5 134t-193.5 46 q-104 0 -192 -46t-155 -134t-104.5 -228t-37.5 -317z" />
<glyph unicode="R" horiz-adv-x="1345" d="M119 0v12q37 14 57.5 56t20.5 90v1175q0 115 -78 146v12h444q81 0 143 -3t131.5 -12.5t120 -26.5t99 -45.5t79 -68.5t48.5 -98t18 -131q0 -134 -91.5 -228.5t-244.5 -142.5l279 -499q6 -9 27 -46t33 -55t33.5 -46.5t45 -47t49.5 -29.5v-12h-362v12q20 10 26.5 26.5t-1 42 t-17.5 46.5t-31 59l-280 510q-56 -6 -111 -6h-154v-532q0 -48 21.5 -90t58.5 -56v-12h-364zM403 719h142q94 0 169.5 20.5t136.5 64.5t94.5 121t33.5 183q0 68 -12 122t-32 91t-52.5 63.5t-66 42t-81 24t-89.5 11t-99 2.5h-144v-745z" />
<glyph unicode="S" horiz-adv-x="1165" d="M70 117l47 207h8q75 -138 189 -224t249 -86q155 0 242.5 74t87.5 203q0 66 -26 122t-70.5 96.5t-102 76t-121 67t-127 63.5t-121 71t-102 84.5t-70.5 108.5t-26 138q0 176 135 280.5t352 104.5q244 0 439 -131l-49 -211h-11q-63 134 -160.5 224t-226.5 90 q-141 0 -226 -74.5t-85 -194.5q0 -60 26.5 -110.5t71.5 -87.5t103 -70t122.5 -63.5t129 -62.5t122.5 -73t103 -88.5t71.5 -115t26.5 -148.5q0 -186 -137 -293.5t-371 -107.5q-315 0 -493 131z" />
<glyph unicode="T" horiz-adv-x="1306" d="M25 1200l53 291h1151l51 -291h-8q-22 49 -53 92t-73 81.5t-97.5 61.5t-116.5 23h-178v-1300q0 -48 21.5 -90t58.5 -56v-12h-367v12q36 14 57 55.5t23 90.5v1300h-174q-61 0 -116 -22.5t-96.5 -61.5t-72.5 -82t-53 -92h-10z" />
<glyph unicode="U" horiz-adv-x="1439" d="M98 1479v12h367v-12q-37 -14 -58.5 -56t-21.5 -90v-764q0 -536 408 -536q193 0 312.5 135.5t119.5 380.5v756q0 107 -90 174v12h213v-12q-88 -67 -88 -174v-758q0 -261 -133.5 -411t-366.5 -150q-280 0 -432 148t-152 439v760q0 48 -20.5 90t-57.5 56z" />
<glyph unicode="V" horiz-adv-x="1318" d="M-23 1479v12h416v-12q-27 -14 -45 -29t-30.5 -35.5t-11.5 -48t16 -61.5l423 -1043l414 1028q12 29 12 55q0 77 -100 130v16h270v-16q-21 -9 -38.5 -22t-28 -22t-22 -30t-15 -27t-14 -33.5t-11.5 -29.5l-534 -1311h-25l-551 1305q-21 47 -31 66.5t-35 51t-59 56.5z" />
<glyph unicode="W" horiz-adv-x="1953" d="M-43 1479v12h416v-12q-27 -14 -44.5 -29t-29.5 -35.5t-10.5 -48t16.5 -61.5l406 -1041l284 762l-102 283q-21 58 -45.5 93.5t-79.5 76.5v12h416v-12q-37 -18 -56.5 -38.5t-26.5 -54.5q-2 -10 -2 -21q0 -27 13 -60l340 -1020l326 993q9 29 9 56q-1 32 -13 62 q-24 56 -78 81v14h256v-14q-30 -14 -52.5 -35.5t-38 -52t-20.5 -43t-14 -41.5l-434 -1305h-27l-352 975l-371 -975h-27l-534 1313q-15 39 -26 60t-36 50t-63 56z" />
<glyph unicode="X" horiz-adv-x="1308" d="M-6 0v14q39 21 73.5 51.5t52.5 52t44 56.5l397 547l-366 569q-8 13 -25.5 43.5t-27.5 45t-27.5 36.5t-38.5 37t-47 27v12h407v-12q-56 -22 -60 -60q0 -3 -1 -6q0 -38 43 -104l309 -478l338 465q29 39 29 82q0 10 -1 18q-7 52 -55 81v14h254v-14q-39 -21 -73.5 -51.5 t-52.5 -52t-44 -56.5l-372 -520l372 -586q11 -17 37.5 -60.5t38.5 -60t38.5 -40t59.5 -38.5v-12h-428v12q64 24 74 60q2 7 3 16q0 35 -36 94l-325 502l-363 -489q-29 -39 -29 -81q0 -8 2 -18q8 -52 54 -82v-14h-254z" />
<glyph unicode="Y" horiz-adv-x="1263" d="M0 1479v12h389v-12q-56 -22 -56 -63q0 -37 38 -107l354 -688l354 682q20 37 20 69q0 68 -95 107v12h294v-12q-59 -20 -105.5 -71.5t-76.5 -111.5l-375 -721v-417q0 -48 21.5 -90t58.5 -56v-12h-381v12q37 14 58.5 56t21.5 90v411l-368 723q-1 2 -8.5 18t-10 20.5 t-10.5 19.5t-12.5 21.5t-13 20.5t-15 21t-17 18.5t-20 18.5t-21 15t-24.5 14z" />
<glyph unicode="Z" horiz-adv-x="1224" d="M61 1214l50 277h1013v-27l-813 -1437h459q294 0 397 249h11l-52 -276h-1040v27l811 1437h-430q-293 0 -397 -250h-9z" />
<glyph unicode="[" horiz-adv-x="702" d="M176 -156v1745l514 -2v-26h-334v-1690h334v-27h-514z" />
<glyph unicode="\" horiz-adv-x="1130" d="M41 1483h51l998 -1483h-52z" />
<glyph unicode="]" horiz-adv-x="702" d="M12 -129h334v1690h-334v26l514 2v-1745h-514v27z" />
<glyph unicode="^" horiz-adv-x="741" d="M98 1145l246 375h51l248 -375h-37l-235 309l-236 -309h-37z" />
<glyph unicode="_" horiz-adv-x="862" d="M0 -33h862v-45h-862v45z" />
<glyph unicode="`" horiz-adv-x="0" d="M-371 1534v2h240l108 -338h-10z" />
<glyph unicode="a" horiz-adv-x="1069" d="M59 207q0 100 80.5 179t257.5 142l305 109v82q0 42 -6.5 80.5t-24 77.5t-45.5 67t-74 46t-106 18q-134 0 -225.5 -91.5t-91.5 -199.5h-10q0 95 44 180t135 142t210 57q200 0 294.5 -116t94.5 -316v-457q0 -135 90 -135q59 0 96 73h2l5 -6q-29 -81 -74.5 -117t-116.5 -36 q-73 0 -126.5 48.5t-67.5 147.5v6q-160 -202 -388 -202q-117 0 -187.5 60t-70.5 161zM236 244q0 -78 47 -128t131 -50q167 0 288 139v416l-219 -91q-247 -106 -247 -286z" />
<glyph unicode="b" horiz-adv-x="1214" d="M57 1473v10q43 16 143 51t134 47h8v-700q60 97 155 155t212 58q185 0 303 -146t118 -407q0 -128 -40 -234t-109 -175.5t-161.5 -107.5t-198.5 -38q-90 0 -179.5 37.5t-158.5 111.5l-125 -135h-13v1296q0 64 -21 101t-67 76zM344 147q43 -59 112.5 -94t135.5 -35 q140 0 230.5 126.5t90.5 379.5q0 227 -77.5 355.5t-208.5 128.5q-91 0 -163 -38.5t-120 -105.5v-717z" />
<glyph unicode="c" horiz-adv-x="1036" d="M82 537q0 158 65.5 284.5t191.5 200.5t292 74q183 0 334 -123l-74 -185h-6q0 1 -8 21.5t-12.5 30.5t-15.5 33.5t-19.5 38.5t-23 37.5t-27.5 37.5t-32 32t-37.5 27t-41.5 16.5t-47 6.5q-102 0 -178 -68.5t-113 -175t-37 -233.5q2 -222 105.5 -357t283.5 -135 q197 0 299 140l6 -9q-43 -105 -146.5 -175t-248.5 -70q-224 0 -367 150.5t-143 400.5z" />
<glyph unicode="d" horiz-adv-x="1218" d="M84 498q0 131 40 244t107 189t155 119.5t183 43.5q81 0 162.5 -34.5t134.5 -94.5v331q0 64 -21 101t-67 76v10q25 9 129.5 44.5t149.5 53.5h8v-1423q0 -49 19 -90.5t55 -55.5v-12h-258l-13 199q-60 -97 -154.5 -155t-211.5 -58q-87 0 -162.5 34t-133 97t-90 161.5 t-32.5 219.5zM295 514q0 -208 79 -325t210 -117q90 0 163 39t119 106v727q-39 42 -104 64t-131 22q-154 0 -245 -136t-91 -380z" />
<glyph unicode="e" horiz-adv-x="1110" d="M82 537q0 157 63.5 284t181 201t265.5 74q221 0 337 -123.5t118 -335.5v-21h-754v-16q0 -217 108 -358.5t281 -141.5q108 0 189.5 34.5t144.5 117.5l6 -8q-132 -258 -412 -258q-232 0 -380 151t-148 400zM293 641h567q0 209 -66 318.5t-198 109.5q-130 0 -212 -120 t-91 -308z" />
<glyph unicode="f" horiz-adv-x="647" d="M43 1036v25h129v184q0 144 85 242t235 98q60 0 117 -18.5t86 -36t66 -43.5q3 -2 4 -3t3 -2.5t4 -2.5l-82 -174h-10q-1 7 -7 39.5t-11 54t-17.5 54.5t-27 53t-40 35t-57.5 15q-151 0 -151 -262v-233h286v-25h-286v-878q0 -50 18.5 -91t54.5 -55v-12h-342v12q72 28 72 146 v878h-129z" />
<glyph unicode="g" horiz-adv-x="1056" d="M37 -174q0 137 215 215q-68 11 -110 48t-42 91q0 76 54 126t151 91q-93 44 -143.5 128.5t-50.5 193.5q0 162 111 266.5t298 104.5q124 0 215 -54q199 59 285 115l20 -180l-272 45q141 -106 141 -297q0 -159 -108 -263t-281 -104q-110 0 -194 35q-125 -53 -125 -111 q0 -70 112 -79l275 -27q197 -14 305 -86.5t108 -202.5q0 -144 -139 -227.5t-360 -83.5q-91 0 -173 16t-148 46.5t-105 80.5t-39 113zM170 -160q0 -112 91.5 -179t240.5 -67q176 0 269 55.5t93 166.5q0 84 -62 132.5t-175 59.5q-194 20 -344 29h-11q-49 -27 -75.5 -80 t-26.5 -117zM301 719q0 -170 56 -257t163 -87q92 0 145.5 89t53.5 255q0 168 -54 258t-145 90q-105 0 -162 -89t-57 -259z" />
<glyph unicode="h" horiz-adv-x="1200" d="M63 1473v10l271 98h16v-682q60 87 160 142t217 55q80 0 140 -27.5t95 -70.5t56.5 -104t29 -118t7.5 -123v-495q0 -50 18.5 -91t54.5 -55v-12h-342v12q72 28 72 146v540q0 154 -63.5 233t-165.5 79q-178 0 -279 -133v-719q0 -49 19 -90.5t55 -55.5v-12h-344v12 q72 28 72 146v1138q0 63 -21.5 100.5t-67.5 76.5z" />
<glyph unicode="i" horiz-adv-x="518" d="M80 973v10q38 14 144 50.5t132 45.5h9v-921q0 -50 18.5 -91t54.5 -55v-12h-344v12q36 14 54 55t18 91v639q0 63 -20.5 100t-65.5 76zM125 1425q0 53 38 91t93 38q52 0 90.5 -38t38.5 -91q0 -56 -38 -94.5t-91 -38.5q-56 0 -93.5 38t-37.5 95z" />
<glyph unicode="j" horiz-adv-x="501" d="M-66 -246l7 4h2q27 -46 53.5 -68t64.5 -22q43 0 70 29.5t27 83.5v1007q0 64 -21 101t-67 76v10q27 10 128.5 45.5t147.5 52.5h10v-1274q0 -103 -55.5 -164t-140.5 -61q-84 0 -135.5 39.5t-90.5 140.5zM117 1425q0 53 39 91t94 38q52 0 90.5 -38t38.5 -91q0 -56 -38 -94.5 t-91 -38.5q-56 0 -94.5 38t-38.5 95z" />
<glyph unicode="k" horiz-adv-x="1097" d="M63 1473v10q28 10 131 45.5t148 52.5h8v-1116l432 448q23 24 23 55q0 8 -2 17q-8 41 -47 66v10h268v-10q-123 -56 -203 -142l-186 -192l309 -498q9 -14 33 -54.5t39 -63.5t44 -50t60 -39v-12h-360v12q32 16 32 53q0 45 -47 121l-239 396l-156 -160v-264q0 -49 19 -90.5 t55 -55.5v-12h-344v12q36 14 54 55t18 91v1138q0 63 -21.5 100.5t-67.5 76.5z" />
<glyph unicode="l" horiz-adv-x="503" d="M63 1473v10q39 14 137.5 49t137.5 49h12v-1423q0 -49 19 -90.5t55 -55.5v-12h-344v12q36 14 54 55t18 91v1138q0 63 -21.5 100.5t-67.5 76.5z" />
<glyph unicode="m" horiz-adv-x="1921" d="M78 969v8q45 17 268 98h8l2 -186q59 92 162 149.5t223 57.5q65 0 120 -19t88 -45t59 -61t36 -57.5t17 -43.5q58 96 161.5 161t223.5 65q80 0 140 -27.5t95.5 -70.5t57.5 -104t29.5 -118t7.5 -123v-495q0 -50 18.5 -91t54.5 -55v-12h-344v12q72 28 72 146v540 q0 155 -62.5 233.5t-164.5 78.5q-155 0 -281 -152v-700q0 -49 19 -90.5t55 -55.5v-12h-344v12q71 28 71 146v540q0 155 -62.5 233.5t-164.5 78.5q-177 0 -278 -133v-719q0 -50 17.5 -91t53.5 -55v-12h-342v12q72 28 72 146v635q0 63 -21 100t-67 76z" />
<glyph unicode="n" horiz-adv-x="1214" d="M78 969v8q42 16 140 51.5t128 46.5h10v-186q59 92 162 149.5t223 57.5q79 0 139 -27.5t95 -70.5t57 -104t29.5 -118t7.5 -123v-495q0 -49 19 -90.5t55 -55.5v-12h-344v12q71 28 71 146v540q0 155 -62.5 233.5t-164.5 78.5q-177 0 -278 -133v-719q0 -50 17.5 -91t53.5 -55 v-12h-342v12q72 28 72 146v635q0 63 -21 100t-67 76z" />
<glyph unicode="o" horiz-adv-x="1210" d="M80 537q0 157 68.5 285t189 201t268.5 73q231 0 377.5 -153.5t146.5 -397.5q0 -161 -68 -289t-187.5 -199t-268.5 -71q-233 0 -379.5 151.5t-146.5 399.5zM293 541q0 -252 86 -391.5t227 -139.5q142 0 228 140q85 138 84 385v6q0 249 -86 388.5t-226 139.5 q-141 0 -227 -139t-86 -389z" />
<glyph unicode="p" horiz-adv-x="1224" d="M72 969v8q42 16 140 51.5t128 46.5h10v-201h4q60 100 155.5 160t213.5 60q181 0 299.5 -147t118.5 -406q0 -127 -39 -233.5t-105 -176t-150.5 -107.5t-176.5 -38q-81 0 -168.5 34.5t-145.5 94.5v-363q0 -49 19 -90t55 -55v-13h-344v13q72 28 72 145v1041q0 63 -20.5 100 t-65.5 76zM356 137q88 -88 242 -88q150 0 240 118t90 357q0 227 -78.5 355.5t-208.5 128.5q-88 0 -163 -40.5t-122 -109.5v-721z" />
<glyph unicode="q" horiz-adv-x="1196" d="M84 494q0 142 41.5 257t115 190t172 115t214.5 40q121 0 233.5 -45t196.5 -129v-1170q0 -116 73 -145v-13h-342v13q36 14 54 54.5t18 90.5v430q-140 -196 -352 -196q-186 0 -305 135.5t-119 372.5zM295 510q0 -199 79.5 -318.5t209.5 -119.5q85 0 156.5 34.5t119.5 96.5 v661q-28 89 -90.5 147t-134.5 58q-112 0 -189.5 -75t-113.5 -198t-37 -286z" />
<glyph unicode="r" horiz-adv-x="858" d="M78 969v8q42 16 140 51.5t128 46.5h10v-215q56 103 140.5 169.5t179.5 66.5q98 -3 174 -64l-59 -145h-5q-77 106 -194 106q-49 0 -90 -16t-68 -42.5t-42 -47t-27 -43.5v-686q0 -50 17.5 -91t53.5 -55v-12h-342v12q72 28 72 146v641q0 55 -22 94t-66 76z" />
<glyph unicode="s" horiz-adv-x="940" d="M55 115l72 166h10q13 -41 40 -86t66.5 -87.5t96 -70t117.5 -27.5q93 0 156 50.5t63 146.5q0 48 -17.5 87t-56.5 72t-80.5 57.5t-111.5 59.5q-56 29 -88 47.5t-77 51.5t-69.5 63t-42.5 73.5t-18 92.5q0 127 106 206t293 79q199 0 340 -111l-70 -170h-12q-10 34 -24 66 t-37 68t-50.5 62t-66.5 43t-84 17q-95 0 -153 -51.5t-58 -142.5q0 -77 52.5 -129.5t195.5 -120.5q53 -27 82.5 -43.5t72 -43t65.5 -49.5t46.5 -54.5t34 -68t10.5 -79.5q0 -145 -113 -224t-296 -79q-119 0 -223 35.5t-171 93.5z" />
<glyph unicode="t" horiz-adv-x="702" d="M37 1036v8q166 84 332 205h6v-188h276v-25h-276v-755q0 -100 45 -146.5t123 -46.5q84 0 151 74l8 -8q-44 -87 -106 -127.5t-152 -40.5q-129 0 -197.5 82t-68.5 221v747h-141z" />
<glyph unicode="u" horiz-adv-x="1179" d="M59 969v8q40 15 148.5 52.5t130.5 45.5h8v-702q0 -150 63 -225.5t173 -75.5q142 0 245 127v594q0 63 -21 100t-67 76v8l277 98h10v-917q0 -50 18 -91t54 -55v-12h-252l-10 184q-65 -86 -157 -142t-192 -56q-169 0 -254.5 107.5t-85.5 303.5v396q0 63 -21 100t-67 76z" />
<glyph unicode="v" horiz-adv-x="1015" d="M-14 1049v12h395v-12q-84 -31 -84 -103q0 -35 20 -80l269 -626l280 637q12 27 12 52q0 67 -90 120v12h252v-12q-37 -22 -64.5 -50.5t-38.5 -47.5t-26 -52l-401 -899h-18l-379 872q-33 73 -58 110t-69 67z" />
<glyph unicode="w" horiz-adv-x="1558" d="M-20 1049v12h395v-12q-86 -32 -86 -104q0 -35 20 -79l271 -628l213 507l-45 127q-27 69 -54 107.5t-73 69.5v12h395v-12q-81 -29 -81 -108q0 -33 15 -75l215 -618l240 626q10 24 10 48q0 70 -90 127v12h252v-12q-39 -20 -67 -49.5t-39 -50.5t-23 -52l-350 -897h-19 l-270 702l-305 -702h-19l-379 872q-34 74 -58 110.5t-68 66.5z" />
<glyph unicode="x" horiz-adv-x="1044" d="M-2 0v12q43 20 92 61t78 81l260 370l-266 373q-3 5 -17.5 27.5t-18.5 27t-16.5 22t-20 23.5t-20.5 17.5t-26.5 19.5t-30.5 15v12h389v-12q-27 -12 -39 -28.5t-9 -38t13.5 -44t30.5 -51.5l195 -271l188 279q26 38 26 73q0 8 -1 14q-6 42 -43 67v12h235v-12 q-44 -22 -92.5 -62.5t-75.5 -79.5l-217 -319l285 -408q5 -7 21 -30.5t21 -30t18.5 -24.5t22 -25.5t22.5 -20t28.5 -21t32.5 -16.5v-12h-412v12q57 28 60 68v6q0 38 -37 88l-228 322l-235 -334q-22 -32 -22 -66q-1 -8 1 -16q6 -42 43 -68v-12h-235z" />
<glyph unicode="y" horiz-adv-x="1019" d="M-16 1049v12h395v-12q-84 -33 -84 -107q0 -34 18 -76l291 -694l266 711q9 21 9 43q0 25 -13 52q-23 47 -78 73v10h252v-10q-87 -41 -131 -156l-405 -1065q-105 -270 -279 -270q-90 0 -164 63l48 131h10q26 -33 75 -58q48 -24 92 -24h3q116 0 172 123l47 107l-397 970 q-30 70 -56 108t-71 69z" />
<glyph unicode="z" horiz-adv-x="970" d="M66 782l53 279h747v-21l-583 -1020h290q62 0 119 24.5t99 64.5t72.5 81.5t51.5 85.5h11l-54 -276h-790v20l584 1018h-250q-62 0 -118.5 -24.5t-99 -65t-72.5 -81t-52 -85.5h-8z" />
<glyph unicode="{" horiz-adv-x="638" d="M2 715v26q87 0 170.5 59t83.5 146q0 37 -22.5 122.5t-22.5 135.5q0 299 401 381l2 -20q-58 -13 -104.5 -54t-72.5 -92.5t-39.5 -97.5t-14.5 -80q-1 -60 23 -146t24 -128q0 -88 -65.5 -144t-206.5 -104q138 -52 204.5 -110t65.5 -148q-1 -42 -25 -134.5t-24 -181.5 q0 -26 9 -67t29 -93t61.5 -94t96.5 -53l-2 -20q-76 19 -138 48.5t-114.5 74t-82 111t-29.5 149.5q0 58 22.5 155.5t22.5 126.5q0 51 -46 107t-105 90.5t-101 34.5z" />
<glyph unicode="|" horiz-adv-x="405" d="M178 -346v2003h49v-2003h-49z" />
<glyph unicode="}" horiz-adv-x="638" d="M25 1565l2 20q399 -82 399 -381q0 -50 -22.5 -135.5t-22.5 -122.5q0 -59 43 -107.5t100.5 -73t110.5 -24.5v-26q-66 0 -159 -78t-93 -154q0 -29 22.5 -126.5t22.5 -155.5q0 -83 -29 -149.5t-81.5 -111t-114 -74t-137.5 -48.5l-3 20q44 9 80 39.5t56.5 67.5t34.5 79t19 72 t5 49q0 89 -23.5 180.5t-23.5 135.5q0 91 66.5 148.5t203.5 109.5q-141 48 -206.5 104t-65.5 144q0 43 22.5 129t22.5 145q0 33 -13.5 80t-39.5 97.5t-72.5 92t-103.5 54.5z" />
<glyph unicode="~" horiz-adv-x="1015" d="M135 559q0 45 17.5 87t63.5 75t114 33q52 0 111 -18.5t101.5 -40t94 -40t90.5 -18.5q57 0 103.5 50.5t46.5 100.5h10q0 -78 -42 -133t-124 -55q-45 0 -98.5 18.5t-95.5 40t-98.5 40t-106.5 18.5q-73 0 -122 -46.5t-55 -111.5h-10z" />
<glyph unicode="&#xa1;" horiz-adv-x="497" d="M98 920q0 55 44.5 97t105.5 42q62 0 105.5 -40.5t43.5 -98.5t-43.5 -99t-105.5 -41t-106 41t-44 99zM147 -254l91 932h20l94 -932q13 -71 -12 -114.5t-88 -43.5t-90 43.5t-15 114.5z" />
<glyph unicode="&#xa2;" horiz-adv-x="1173" d="M117 700q0 247 150 400t386 153h13v90h32v-92q70 -6 131 -31.5t111 -70t81.5 -115.5t37.5 -160h-12q-6 65 -29.5 117.5t-57.5 86t-78.5 55.5t-90 31.5t-93.5 9.5l2 -945q63 1 119 16.5t107 48.5t85 93t42 141h12q-13 -175 -114 -269t-251 -107v-132h-30v130h-17 q-236 0 -386 152t-150 398zM336 698q0 -193 94 -324t240 -143l-4 940q-145 -14 -237.5 -145.5t-92.5 -327.5z" />
<glyph unicode="&#xa3;" horiz-adv-x="1191" d="M70 158q0 74 57 127t143 53q78 0 164 -39v6q0 65 -19 140.5t-35.5 117t-55.5 133.5h-154v33h139q-45 108 -69.5 202t-24.5 199q0 170 113 271.5t311 101.5q378 0 405 -368h-10q-39 313 -350 313q-127 0 -201.5 -76.5t-74.5 -224.5q0 -31 3 -61t10.5 -64.5t13 -57 t19.5 -63t19 -55t22.5 -61t20.5 -54.5h305v-33h-293q52 -151 52 -247q0 -108 -35 -211q80 -45 146.5 -69t146.5 -24q62 0 122 26.5t101.5 79.5t42.5 120h12q0 -189 -73.5 -288t-215.5 -99q-94 0 -168 43.5t-153 120.5q-91 -164 -246 -164q-82 0 -136 48.5t-54 123.5z M137 162q0 -63 32.5 -105.5t90.5 -42.5q66 0 110 57t58 150q-93 86 -162 86q-62 0 -95.5 -42.5t-33.5 -102.5z" />
<glyph unicode="&#xa4;" horiz-adv-x="1087" d="M137 655q0 158 96 271l-81 84l24 24l82 -82q112 115 287 115q168 0 284 -113l84 84l25 -24l-84 -86q98 -119 98 -273q0 -163 -102 -280l88 -88l-25 -27l-88 88q-114 -108 -280 -108q-170 0 -283 110l-86 -86l-26 27l88 86q-101 119 -101 278zM211 653q0 -69 21 -134.5 t60.5 -120.5t105 -88.5t147.5 -33.5q81 0 146.5 33.5t104.5 88.5t60 120.5t21 134.5t-21 134.5t-60 120.5t-104.5 88.5t-146.5 33.5q-82 0 -147.5 -33.5t-105 -88.5t-60.5 -120.5t-21 -134.5z" />
<glyph unicode="&#xa5;" horiz-adv-x="1351" d="M51 1479v12h389v-12q-54 -21 -59 -58t33 -112l342 -688l334 682q60 120 -76 176v12h295v-12q-59 -20 -106.5 -71.5t-76.5 -111.5l-342 -698h269v-33h-281v-164h281v-32h-281v-211q0 -48 21.5 -90t58.5 -56v-12h-381v12q37 14 58.5 56t21.5 90v211h-272v32h272v164h-272 v33h258l-334 694q-1 1 -12.5 25t-15.5 30.5t-16.5 28t-21.5 31.5t-23 26t-29.5 27t-33.5 19z" />
<glyph unicode="&#xa6;" horiz-adv-x="405" d="M178 -346v874h49v-874h-49zM178 778v879h49v-879h-49z" />
<glyph unicode="&#xa7;" horiz-adv-x="991" d="M100 616q0 112 59 189.5t160 114.5q-88 50 -134 116.5t-46 163.5q0 132 105.5 216.5t269.5 84.5q161 0 249.5 -88t90.5 -219h-10q-10 120 -96.5 189t-221.5 69q-112 0 -188 -50.5t-76 -137.5q0 -45 18 -80.5t58 -65t85.5 -51.5t117.5 -51q81 -33 138.5 -65.5t109 -77.5 t78 -104t26.5 -132q0 -110 -59 -187.5t-160 -115.5q89 -50 134.5 -116t45.5 -163q0 -133 -105.5 -218t-269.5 -85q-161 0 -249.5 88.5t-90.5 220.5h11q10 -122 96 -191t221 -69q112 0 188 51t76 140q0 37 -14 68.5t-35 54t-62 46.5t-77.5 41t-98.5 42q-79 31 -136.5 63.5 t-107 76.5t-75 102.5t-25.5 129.5zM199 696q0 -51 19.5 -90.5t63.5 -73.5t92.5 -59t129.5 -59q112 -49 147 -68q66 30 105 86t39 127q0 51 -20.5 91.5t-67.5 75t-97 60t-135 60.5q-89 36 -133 61q-66 -28 -104.5 -84t-38.5 -127z" />
<glyph unicode="&#xa8;" horiz-adv-x="0" d="M-655 1374q0 50 33 83.5t85 33.5q48 0 81.5 -34t33.5 -83q0 -52 -33.5 -86.5t-81.5 -34.5q-52 0 -85 34t-33 87zM-281 1374q0 50 33.5 83.5t83.5 33.5q48 0 82.5 -34t34.5 -83q0 -52 -34.5 -86.5t-82.5 -34.5q-50 0 -83.5 34.5t-33.5 86.5z" />
<glyph unicode="&#xa9;" horiz-adv-x="1646" d="M119 702q1 203 89 364.5t249.5 254t367.5 92.5q205 0 366.5 -92.5t249.5 -254t89 -364.5t-87.5 -365t-250 -253.5t-367.5 -91.5q-208 0 -369.5 91.5t-249.5 253.5t-87 365zM188 707q0 -179 79 -327.5t225.5 -237.5t330.5 -89q176 0 321 82.5t229 231.5t85 335 q1 139 -47.5 260t-132.5 206.5t-201.5 134.5t-251.5 49q-182 0 -328 -84t-227.5 -231.5t-81.5 -329.5zM477 696q0 166 102.5 274.5t272.5 108.5q123 0 229 -84l-51 -125h-4q-66 185 -180 185q-102 0 -159.5 -93.5t-57.5 -228.5q0 -150 68.5 -238.5t189.5 -88.5q141 0 205 90 l4 -9q-27 -68 -101.5 -116.5t-163.5 -48.5q-154 0 -254 102.5t-100 271.5z" />
<glyph unicode="&#xaa;" horiz-adv-x="851" d="M92 903q0 67 55.5 120t174.5 95l204 74v55q0 36 -8 68.5t-25.5 62.5t-53 48t-85.5 18q-91 0 -152 -62.5t-61 -136.5h-10q0 101 72 178.5t192 77.5q133 0 197.5 -79t64.5 -212v-309q0 -49 14.5 -69.5t45.5 -20.5q41 0 65 49h2l2 -2q-39 -104 -127 -104q-49 0 -85 32 t-46 99v4q-111 -135 -262 -135q-79 0 -126.5 40.5t-47.5 108.5zM211 928q0 -54 31.5 -86.5t89.5 -32.5q112 0 194 94v279l-149 -64q-166 -72 -166 -190z" />
<glyph unicode="&#xab;" horiz-adv-x="1212" d="M86 598v51l510 336v-43l-457 -319l457 -316v-43zM573 598v51l508 336v-43l-456 -319l456 -316v-43z" />
<glyph unicode="&#xad;" horiz-adv-x="847" d="M68 694v41h712v-41h-712z" />
<glyph unicode="&#xae;" horiz-adv-x="1646" d="M119 702q1 203 89 364.5t249.5 254t367.5 92.5q205 0 366.5 -92.5t249.5 -254t89 -364.5t-87.5 -365t-250 -253.5t-367.5 -91.5q-208 0 -369.5 91.5t-249.5 253.5t-87 365zM188 707q0 -179 79 -327.5t225.5 -237.5t330.5 -89q132 0 249 48.5t202 133.5t134.5 206.5 t49.5 260.5q1 139 -47.5 260t-132.5 206.5t-201.5 134.5t-251.5 49q-182 0 -328 -84t-227.5 -231.5t-81.5 -329.5zM549 344v10q37 15 37 70v577q0 55 -37 70v8h229q57 0 97.5 -3t84.5 -14.5t71 -31t45 -55t18 -84.5q0 -66 -46 -112.5t-122 -71.5l137 -244q3 -5 11.5 -19 t13 -21.5t13.5 -20t16.5 -20t17.5 -15.5t20 -13v-10h-182v10q13 7 14 19.5t-5 26t-19 36.5l-140 252q-16 -2 -47 -2h-82v-262q0 -24 11.5 -44t27.5 -26v-10h-184zM694 707h76q96 0 151.5 44t55.5 140q0 45 -11 76.5t-27.5 49t-45.5 27.5t-56 12.5t-67 2.5h-76v-352z" />
<glyph unicode="&#xaf;" horiz-adv-x="0" d="M-668 1317v37h621v-37h-621z" />
<glyph unicode="&#xb0;" horiz-adv-x="679" d="M80 1309q0 115 76.5 187.5t183.5 72.5t183.5 -72.5t76.5 -187.5t-77 -188.5t-183 -73.5t-183 73.5t-77 188.5zM123 1311q0 -97 59.5 -161.5t157.5 -64.5t157.5 64.5t59.5 161.5q0 98 -59 158.5t-158 60.5t-158 -60.5t-59 -158.5z" />
<glyph unicode="&#xb1;" horiz-adv-x="940" d="M135 647v33h303v291h41v-291h316v-33h-316v-336h-41v336h-303zM141 168v33h660v-33h-660z" />
<glyph unicode="&#xb2;" horiz-adv-x="806" d="M109 645v10q86 84 135.5 135t109.5 119t90.5 117t52 105.5t21.5 107.5q0 87 -45.5 139t-128.5 52q-104 0 -156 -59.5t-59 -147.5h-6q3 116 76.5 200t199.5 84q124 0 198.5 -63t74.5 -168q0 -49 -21.5 -99t-50.5 -90t-82 -90t-92.5 -82t-106 -84.5t-100.5 -80.5h332 q105 0 158 88h4l-60 -193h-544z" />
<glyph unicode="&#xb3;" horiz-adv-x="727" d="M98 813l8 4q23 -60 75 -100.5t118 -40.5q84 0 137 56.5t53 144.5q1 110 -64 160t-159 50h-22v9q113 1 174 53.5t61 142.5q0 77 -47 124.5t-119 47.5q-77 0 -136.5 -58.5t-61.5 -125.5h-6q0 87 68.5 158t187.5 71q113 0 178 -57t65 -147t-57.5 -140t-136.5 -67 q34 -7 67 -21.5t67 -40.5t54.5 -68.5t20.5 -95.5q0 -109 -77 -177t-200 -68q-90 0 -154.5 53.5t-93.5 132.5z" />
<glyph unicode="&#xb4;" horiz-adv-x="0" d="M-322 1192l109 340h240v-4l-338 -336h-11z" />
<glyph unicode="&#xb6;" horiz-adv-x="1409" d="M90 979q0 126 40.5 224t112.5 158.5t166 91t207 30.5h713v-35h-184v-1610h-43v1610h-244v-1610h-43v637l-199 2q-109 1 -202.5 32t-167 91t-115 157.5t-41.5 221.5z" />
<glyph unicode="&#xb7;" horiz-adv-x="514" d="M117 709q0 57 41.5 98t99.5 41q57 0 98 -41t41 -98q0 -58 -41 -100t-98 -42q-58 0 -99.5 43t-41.5 99z" />
<glyph unicode="&#xb8;" horiz-adv-x="0" d="M-389 -303l10 4q42 -49 115 -49q42 0 70 26t28 76q0 42 -21.5 66t-54.5 24q-32 0 -53 -12l-6 4l55 178h27l-33 -114q27 10 62 10q59 0 103 -39.5t44 -110.5q0 -77 -52 -120t-122 -43q-119 0 -172 100z" />
<glyph unicode="&#xb9;" horiz-adv-x="491" d="M82 1350v6q156 74 244 143h4v-754q0 -29 16.5 -56.5t38.5 -35.5v-8h-252v8q21 8 37 35.5t16 56.5v510q0 47 -24 71t-80 24z" />
<glyph unicode="&#xba;" horiz-adv-x="884" d="M84 1130q0 169 101.5 271t256.5 102t257 -102t102 -271t-102 -271.5t-257 -102.5t-256.5 102.5t-101.5 271.5zM215 1130q0 -178 61.5 -264t165.5 -86q103 0 166.5 86.5t63.5 263.5q0 175 -63.5 262t-166.5 87q-101 0 -164 -87t-63 -262z" />
<glyph unicode="&#xbb;" horiz-adv-x="1212" d="M131 264v43l457 316l-457 319v43l510 -336v-51zM618 264v43l455 316l-455 319v43l508 -336v-51z" />
<glyph unicode="&#xbc;" horiz-adv-x="1378" d="M88 1350v6q156 74 244 143h4v-754q0 -29 16.5 -56.5t38.5 -35.5v-8h-252v8q21 8 37.5 35.5t16.5 56.5v510q0 95 -105 95zM131 0l995 1483h50l-998 -1483h-47zM643 285v16l526 621h23v-613h121v-24h-121v-174q0 -32 19.5 -63t43.5 -40v-8h-260v8q25 9 43.5 40t18.5 63v174 h-414zM686 309h371v439z" />
<glyph unicode="&#xbd;" horiz-adv-x="1411" d="M129 0l995 1483h47l-997 -1483h-45zM129 1350v6q150 71 244 145h4v-756q0 -28 16.5 -56t36.5 -36v-8h-252v8q22 7 38.5 35.5t16.5 56.5v510q0 48 -24 71.5t-80 23.5zM731 0v12q87 85 136 135t109 118.5t91 117.5t52.5 105.5t21.5 107.5q0 86 -45.5 137t-128.5 51 q-104 0 -156 -59t-59 -147h-7q3 116 77 201t200 85q124 0 197 -64t73 -169q0 -42 -13.5 -83t-42.5 -82t-58.5 -75t-78 -76t-83 -70t-91.5 -72.5t-87 -68.5l336 2q102 0 155 87h6l-61 -193h-543z" />
<glyph unicode="&#xbe;" horiz-adv-x="1470" d="M76 782l8 6q74 -116 195 -116q85 0 137.5 58t52.5 147q0 108 -64 158t-157 50h-23v7q114 1 176 54t62 144q0 76 -47.5 123t-120.5 47q-83 0 -144 -57.5t-63 -126.5h-6q0 87 69.5 158t192.5 71q115 0 181.5 -58t64.5 -147q0 -47 -18.5 -84.5t-49 -61.5t-62.5 -38.5 t-67 -21.5q34 -6 66.5 -20t66.5 -39.5t55 -69t21 -99.5q0 -106 -75 -174.5t-189 -68.5q-83 0 -151.5 44t-110.5 115zM266 0l996 1483h47l-998 -1483h-45zM731 285l2 16l524 621h25v-613h119v-24h-119v-174q0 -32 18.5 -63t42.5 -40v-8h-260v8q25 9 44.5 40t19.5 63v174h-416 zM776 309h371l-2 436z" />
<glyph unicode="&#xbf;" horiz-adv-x="997" d="M61 -70q0 69 26.5 129.5t68 104.5t92.5 84.5t102 78.5t92.5 78t68 91.5t26.5 109.5v56h24v-56q0 -80 -29 -148.5t-70.5 -119.5t-83 -101t-70.5 -114.5t-29 -138.5q0 -72 24.5 -128t66 -89.5t94 -50.5t111.5 -17q139 0 243.5 78t107.5 203h18q-2 -68 -34 -136.5t-89 -126 t-146 -93.5t-194 -36q-184 0 -302 95.5t-118 246.5zM401 901q0 57 43 97t105 40q61 0 104 -41t43 -96q0 -57 -43 -97t-104 -40q-62 0 -105 40t-43 97z" />
<glyph unicode="&#xc0;" horiz-adv-x="1316" d="M-25 0v16q26 12 44.5 25t33.5 35t20 29.5t18.5 40t14.5 34.5l533 1311h27l553 -1313q3 -8 12.5 -29.5t13.5 -31t14 -27t19.5 -28.5t25 -25t33.5 -25v-12h-411v12q27 14 44.5 29t30 35.5t11.5 48t-15 61.5l-110 271h-625l-98 -244q-51 -126 84 -197v-16h-273zM276 492h596 l-299 739zM313 1960v6h260l197 -348h-10z" />
<glyph unicode="&#xc1;" horiz-adv-x="1316" d="M-25 0v16q26 12 44.5 25t33.5 35t20 29.5t18.5 40t14.5 34.5l533 1311h27l553 -1313q3 -8 12.5 -29.5t13.5 -31t14 -27t19.5 -28.5t25 -25t33.5 -25v-12h-411v12q27 14 44.5 29t30 35.5t11.5 48t-15 61.5l-110 271h-625l-98 -244q-51 -126 84 -197v-16h-273zM276 492h596 l-299 739zM594 1618l194 348h263v-6l-449 -342h-8z" />
<glyph unicode="&#xc2;" horiz-adv-x="1316" d="M-25 0v16q26 12 44.5 25t33.5 35t20 29.5t18.5 40t14.5 34.5l533 1311h27l553 -1313q3 -8 12.5 -29.5t13.5 -31t14 -27t19.5 -28.5t25 -25t33.5 -25v-12h-411v12q27 14 44.5 29t30 35.5t11.5 48t-15 61.5l-110 271h-625l-98 -244q-51 -126 84 -197v-16h-273zM276 492h596 l-299 739zM328 1618v2l331 338h41l322 -338v-2h-10l-334 184l-340 -184h-10z" />
<glyph unicode="&#xc3;" horiz-adv-x="1316" d="M-25 0v16q26 12 44.5 25t33.5 35t20 29.5t18.5 40t14.5 34.5l533 1311h27l553 -1313q3 -8 12.5 -29.5t13.5 -31t14 -27t19.5 -28.5t25 -25t33.5 -25v-12h-411v12q27 14 44.5 29t30 35.5t11.5 48t-15 61.5l-110 271h-625l-98 -244q-51 -126 84 -197v-16h-273zM276 492h596 l-299 739zM336 1612q0 40 10 81t32 83.5t66 69t103 26.5q49 0 100.5 -21t87.5 -46.5t78 -46.5t76 -21q60 0 102.5 41.5t42.5 89.5h13q2 -104 -47 -174t-140 -70q-43 0 -94 21t-90.5 46.5t-88 46.5t-87.5 21q-68 0 -107.5 -45t-44.5 -102h-12z" />
<glyph unicode="&#xc4;" horiz-adv-x="1316" d="M-25 0v16q26 12 44.5 25t33.5 35t20 29.5t18.5 40t14.5 34.5l533 1311h27l553 -1313q3 -8 12.5 -29.5t13.5 -31t14 -27t19.5 -28.5t25 -25t33.5 -25v-12h-411v12q27 14 44.5 29t30 35.5t11.5 48t-15 61.5l-110 271h-625l-98 -244q-51 -126 84 -197v-16h-273zM276 492h596 l-299 739zM326 1802q0 48 32 80.5t82 32.5q46 0 78.5 -33t32.5 -80q0 -49 -32 -80.5t-79 -31.5q-51 0 -82.5 31t-31.5 81zM758 1802q0 48 32.5 80.5t81.5 32.5q46 0 79.5 -33t33.5 -80q0 -49 -33 -80.5t-80 -31.5q-50 0 -82 31.5t-32 80.5z" />
<glyph unicode="&#xc5;" horiz-adv-x="1316" d="M-25 0v16q26 12 44.5 25t33.5 35t20 29.5t18.5 40t14.5 34.5l533 1311h27l553 -1313q3 -8 12.5 -29.5t13.5 -31t14 -27t19.5 -28.5t25 -25t33.5 -25v-12h-411v12q27 14 44.5 29t30 35.5t11.5 48t-15 61.5l-110 271h-625l-98 -244q-51 -126 84 -197v-16h-273zM276 492h596 l-299 739zM489 1780q0 75 51 122.5t122 47.5q69 0 118 -47.5t49 -122.5q0 -76 -49 -124t-118 -48q-71 0 -122 48t-51 124zM543 1780q0 -53 33 -88t88 -35q50 0 81 35t31 88t-30.5 85.5t-81.5 32.5q-55 0 -88 -32.5t-33 -85.5z" />
<glyph unicode="&#xc6;" horiz-adv-x="1812" d="M-37 0v16q42 17 75.5 48t47.5 53t37 63l690 1311h864l52 -277h-11q-104 250 -395 250h-303v-635h350q55 0 99.5 49.5t60.5 120.5h12v-370h-12q-16 69 -59.5 118.5t-100.5 49.5h-350v-760h305q295 0 401 239h9l-49 -276h-873v451h-504l-131 -250q-67 -121 51 -185v-16 h-266zM328 485h485v920z" />
<glyph unicode="&#xc7;" horiz-adv-x="1325" d="M96 743q0 218 88.5 391t250.5 271t370 98q254 0 463 -166l-103 -207h-10q-151 343 -373 343q-134 0 -238 -87.5t-160 -240t-56 -342.5q2 -300 144 -488t378 -188q116 0 223.5 52t177.5 155l9 -12q-75 -157 -201.5 -246.5t-308.5 -89.5h-11l-24 -86q27 10 61 10 q58 0 103 -40t45 -110q0 -77 -52 -120t-122 -43q-119 0 -172 100l10 4q42 -49 114 -49q43 0 71 26t28 76q0 42 -21.5 66t-54.5 24q-32 0 -53 -12l-6 4l47 152q-130 7 -243 64.5t-196 155t-130.5 236t-47.5 299.5z" />
<glyph unicode="&#xc8;" horiz-adv-x="1193" d="M119 0v12q37 14 57.5 56t20.5 90v1175q0 48 -20.5 90t-57.5 56v12h903l49 -277h-8q-21 50 -51 91.5t-75.5 79t-111.5 58.5t-147 21h-275v-635h324q53 0 91 50t54 125h13v-379h-13q-17 73 -54.5 122.5t-90.5 49.5h-324v-760h334q294 0 400 239h10l-51 -276h-977zM272 1960 v6h263l194 -348h-10z" />
<glyph unicode="&#xc9;" horiz-adv-x="1193" d="M119 0v12q37 14 57.5 56t20.5 90v1175q0 48 -20.5 90t-57.5 56v12h903l49 -277h-8q-21 50 -51 91.5t-75.5 79t-111.5 58.5t-147 21h-275v-635h324q53 0 91 50t54 125h13v-379h-13q-17 73 -54.5 122.5t-90.5 49.5h-324v-760h334q294 0 400 239h10l-51 -276h-977zM553 1618 l195 348h262v-6l-447 -342h-10z" />
<glyph unicode="&#xca;" horiz-adv-x="1193" d="M119 0v12q37 14 57.5 56t20.5 90v1175q0 48 -20.5 90t-57.5 56v12h903l49 -277h-8q-21 50 -51 91.5t-75.5 79t-111.5 58.5t-147 21h-275v-635h324q53 0 91 50t54 125h13v-379h-13q-17 73 -54.5 122.5t-90.5 49.5h-324v-760h334q294 0 400 239h10l-51 -276h-977zM289 1618 v2l332 338h41l321 -338v-2h-10l-336 184l-338 -184h-10z" />
<glyph unicode="&#xcb;" horiz-adv-x="1193" d="M119 0v12q37 14 57.5 56t20.5 90v1175q0 48 -20.5 90t-57.5 56v12h903l49 -277h-8q-21 50 -51 91.5t-75.5 79t-111.5 58.5t-147 21h-275v-635h324q53 0 91 50t54 125h13v-379h-13q-17 73 -54.5 122.5t-90.5 49.5h-324v-760h334q294 0 400 239h10l-51 -276h-977zM287 1802 q0 48 31.5 80.5t80.5 32.5q47 0 80 -33t33 -80q0 -49 -32.5 -80.5t-80.5 -31.5q-49 0 -80.5 31t-31.5 81zM719 1802q0 48 31.5 80.5t80.5 32.5q47 0 80 -33t33 -80q0 -49 -32.5 -80.5t-80.5 -31.5q-49 0 -80.5 31t-31.5 81z" />
<glyph unicode="&#xcc;" horiz-adv-x="600" d="M-49 1960v6h262l195 -348h-11zM119 0v12q37 14 57.5 56t20.5 90v1175q0 48 -20.5 90t-57.5 56v12h364v-12q-37 -14 -58.5 -56t-21.5 -90v-1175q0 -48 21.5 -90t58.5 -56v-12h-364z" />
<glyph unicode="&#xcd;" horiz-adv-x="600" d="M119 0v12q37 14 57.5 56t20.5 90v1175q0 48 -20.5 90t-57.5 56v12h364v-12q-37 -14 -58.5 -56t-21.5 -90v-1175q0 -48 21.5 -90t58.5 -56v-12h-364zM231 1618l195 348h262v-6l-446 -342h-11z" />
<glyph unicode="&#xce;" horiz-adv-x="600" d="M-35 1618v2l332 338h41l324 -338v-2h-11l-336 184l-340 -184h-10zM119 0v12q37 14 57.5 56t20.5 90v1175q0 48 -20.5 90t-57.5 56v12h364v-12q-37 -14 -58.5 -56t-21.5 -90v-1175q0 -48 21.5 -90t58.5 -56v-12h-364z" />
<glyph unicode="&#xcf;" horiz-adv-x="600" d="M-35 1802q0 48 32 80.5t81 32.5q47 0 79.5 -33t32.5 -80q0 -49 -32 -80.5t-80 -31.5q-50 0 -81.5 31.5t-31.5 80.5zM119 0v12q37 14 57.5 56t20.5 90v1175q0 48 -20.5 90t-57.5 56v12h364v-12q-37 -14 -58.5 -56t-21.5 -90v-1175q0 -48 21.5 -90t58.5 -56v-12h-364z M397 1802q0 48 32 80.5t81 32.5q47 0 80 -33t33 -80q0 -49 -32.5 -80.5t-80.5 -31.5q-50 0 -81.5 31.5t-31.5 80.5z" />
<glyph unicode="&#xd0;" horiz-adv-x="1511" d="M31 743v27h176v563q0 48 -20.5 90t-57.5 56v12h537q158 0 296.5 -54.5t239.5 -152t159 -239t58 -308.5q0 -209 -100.5 -378.5t-273.5 -264t-383 -94.5h-533v12q37 14 57.5 56t20.5 90v585h-176zM414 29h243q243 0 386 183t143 527q0 354 -140.5 538.5t-383.5 184.5h-248 v-692h243v-27h-243v-714z" />
<glyph unicode="&#xd1;" horiz-adv-x="1474" d="M111 0v12q88 66 88 168v1096q0 170 -80 201v14h182l946 -1180v1000q0 101 -86 168v12h209v-12q-88 -67 -88 -168v-1311h-27l-1024 1270v-1090q0 -101 91 -168v-12h-211zM434 1612q0 31 6 63.5t21 68.5t38 64t61 46t85 18q51 0 103 -21t87.5 -46.5t78 -46.5t75.5 -21 q59 0 102.5 41.5t43.5 89.5h12q2 -104 -47 -174t-139 -70q-43 0 -94.5 21t-91 46.5t-88 46.5t-87.5 21q-68 0 -108.5 -45.5t-45.5 -101.5h-12z" />
<glyph unicode="&#xd2;" d="M92 748q0 160 56 300.5t152.5 240t230.5 157t284 57.5q151 0 285 -57t230 -155.5t152 -238.5t56 -300q0 -162 -56 -304.5t-152 -243.5t-230 -159.5t-285 -58.5q-150 0 -284 57.5t-230.5 158t-152.5 242.5t-56 304zM326 750q0 -181 37.5 -323t104.5 -231t155 -135.5 t192 -46.5q105 0 193.5 46.5t155 135.5t104.5 231t39 323q0 177 -38 317t-105 228t-155.5 134t-193.5 46q-104 0 -192 -46t-155 -134t-104.5 -228t-37.5 -317zM514 1964v6h260l197 -348h-10z" />
<glyph unicode="&#xd3;" d="M92 748q0 160 56 300.5t152.5 240t230.5 157t284 57.5q151 0 285 -57t230 -155.5t152 -238.5t56 -300q0 -162 -56 -304.5t-152 -243.5t-230 -159.5t-285 -58.5q-150 0 -284 57.5t-230.5 158t-152.5 242.5t-56 304zM326 750q0 -181 37.5 -323t104.5 -231t155 -135.5 t192 -46.5q105 0 193.5 46.5t155 135.5t104.5 231t39 323q0 177 -38 317t-105 228t-155.5 134t-193.5 46q-104 0 -192 -46t-155 -134t-104.5 -228t-37.5 -317zM748 1622l194 348h262v-6l-448 -342h-8z" />
<glyph unicode="&#xd4;" d="M92 748q0 160 56 300.5t152.5 240t230.5 157t284 57.5q151 0 285 -57t230 -155.5t152 -238.5t56 -300q0 -162 -56 -304.5t-152 -243.5t-230 -159.5t-285 -58.5q-150 0 -284 57.5t-230.5 158t-152.5 242.5t-56 304zM326 750q0 -181 37.5 -323t104.5 -231t155 -135.5 t192 -46.5q105 0 193.5 46.5t155 135.5t104.5 231t39 323q0 177 -38 317t-105 228t-155.5 134t-193.5 46q-104 0 -192 -46t-155 -134t-104.5 -228t-37.5 -317zM475 1622v2l332 338h41l323 -338v-2h-10l-336 184l-340 -184h-10z" />
<glyph unicode="&#xd5;" d="M92 748q0 160 56 300.5t152.5 240t230.5 157t284 57.5q151 0 285 -57t230 -155.5t152 -238.5t56 -300q0 -162 -56 -304.5t-152 -243.5t-230 -159.5t-285 -58.5q-150 0 -284 57.5t-230.5 158t-152.5 242.5t-56 304zM326 750q0 -181 37.5 -323t104.5 -231t155 -135.5 t192 -46.5q105 0 193.5 46.5t155 135.5t104.5 231t39 323q0 177 -38 317t-105 228t-155.5 134t-193.5 46q-104 0 -192 -46t-155 -134t-104.5 -228t-37.5 -317zM489 1616q0 31 6 63.5t21 68.5t38 64t61 46t85 18q49 0 100.5 -21t87.5 -46.5t78 -46.5t76 -21q60 0 103 41.5 t43 89.5h12q2 -104 -46.5 -174t-139.5 -70q-43 0 -94 21t-90.5 46.5t-88 46.5t-86.5 21q-69 0 -108.5 -45t-44.5 -102h-13z" />
<glyph unicode="&#xd6;" d="M92 748q0 160 56 300.5t152.5 240t230.5 157t284 57.5q151 0 285 -57t230 -155.5t152 -238.5t56 -300q0 -162 -56 -304.5t-152 -243.5t-230 -159.5t-285 -58.5q-150 0 -284 57.5t-230.5 158t-152.5 242.5t-56 304zM326 750q0 -181 37.5 -323t104.5 -231t155 -135.5 t192 -46.5q105 0 193.5 46.5t155 135.5t104.5 231t39 323q0 177 -38 317t-105 228t-155.5 134t-193.5 46q-104 0 -192 -46t-155 -134t-104.5 -228t-37.5 -317zM479 1806q0 48 32.5 80.5t82.5 32.5q46 0 79.5 -33t33.5 -80q0 -49 -33 -80.5t-80 -31.5q-51 0 -83 31t-32 81z M911 1806q0 48 33 80.5t82 32.5q46 0 79.5 -33t33.5 -80q0 -49 -33 -80.5t-80 -31.5q-50 0 -82.5 31.5t-32.5 80.5z" />
<glyph unicode="&#xd7;" horiz-adv-x="778" d="M133 367l232 241l-232 242l27 27l231 -242l230 242l26 -27l-231 -242l231 -241l-26 -27l-230 242l-231 -242z" />
<glyph unicode="&#xd8;" d="M92 748q0 160 56 300.5t152.5 240t230.5 157t284 57.5q217 0 387 -110l84 133h47v-2l-96 -154q141 -102 221 -262.5t80 -355.5q0 -162 -56 -304.5t-152 -243.5t-230 -159.5t-285 -58.5q-208 0 -381 106l-86 -137h-47v6l98 156q-142 102 -224.5 267t-82.5 364zM326 750 q0 -347 133 -539l692 1100q-127 164 -336 164q-104 0 -192 -46t-155 -134t-104.5 -228t-37.5 -317zM485 174q130 -160 330 -160q105 0 193.5 46.5t155 135.5t104.5 231t39 323q0 331 -129 526z" />
<glyph unicode="&#xd9;" horiz-adv-x="1439" d="M98 1479v12h367v-12q-37 -14 -58.5 -56t-21.5 -90v-764q0 -536 408 -536q193 0 312.5 135.5t119.5 380.5v756q0 107 -90 174v12h213v-12q-88 -67 -88 -174v-758q0 -261 -133.5 -411t-366.5 -150q-280 0 -432 148t-152 439v760q0 48 -20.5 90t-57.5 56zM438 1960v6h262 l195 -348h-10z" />
<glyph unicode="&#xda;" horiz-adv-x="1439" d="M98 1479v12h367v-12q-37 -14 -58.5 -56t-21.5 -90v-764q0 -536 408 -536q193 0 312.5 135.5t119.5 380.5v756q0 107 -90 174v12h213v-12q-88 -67 -88 -174v-758q0 -261 -133.5 -411t-366.5 -150q-280 0 -432 148t-152 439v760q0 48 -20.5 90t-57.5 56zM672 1618l194 348 h262v-6l-446 -342h-10z" />
<glyph unicode="&#xdb;" horiz-adv-x="1439" d="M98 1479v12h367v-12q-37 -14 -58.5 -56t-21.5 -90v-764q0 -536 408 -536q193 0 312.5 135.5t119.5 380.5v756q0 107 -90 174v12h213v-12q-88 -67 -88 -174v-758q0 -261 -133.5 -411t-366.5 -150q-280 0 -432 148t-152 439v760q0 48 -20.5 90t-57.5 56zM408 1618v2 l331 338h41l322 -338v-2h-10l-336 184l-338 -184h-10z" />
<glyph unicode="&#xdc;" horiz-adv-x="1439" d="M98 1479v12h367v-12q-37 -14 -58.5 -56t-21.5 -90v-764q0 -536 408 -536q193 0 312.5 135.5t119.5 380.5v756q0 107 -90 174v12h213v-12q-88 -67 -88 -174v-758q0 -261 -133.5 -411t-366.5 -150q-280 0 -432 148t-152 439v760q0 48 -20.5 90t-57.5 56zM442 1802 q0 48 32 80.5t81 32.5q47 0 80 -33t33 -80q0 -49 -32.5 -80.5t-80.5 -31.5q-50 0 -81.5 31.5t-31.5 80.5zM874 1802q0 48 32 80.5t81 32.5q47 0 80 -33t33 -80q0 -49 -32.5 -80.5t-80.5 -31.5q-50 0 -81.5 31.5t-31.5 80.5z" />
<glyph unicode="&#xdd;" horiz-adv-x="1263" d="M0 1479v12h389v-12q-54 -21 -56 -59t38 -111l354 -688l354 682q63 119 -75 176v12h294v-12q-59 -20 -105.5 -71.5t-76.5 -111.5l-375 -721v-417q0 -48 21.5 -90t58.5 -56v-12h-381v12q37 14 58.5 56t21.5 90v411l-368 723q-1 2 -8.5 18t-10 20.5t-10.5 19.5t-12.5 21.5 t-13 20.5t-15 21t-17 18.5t-20 18.5t-21 15t-24.5 14zM606 1618l195 348h262v-6l-449 -342h-8z" />
<glyph unicode="&#xde;" horiz-adv-x="1316" d="M119 0v12q37 14 57.5 56t20.5 90v1175q0 48 -20.5 90t-57.5 56v12h364v-12q-37 -14 -58.5 -56t-21.5 -90v-108h140q351 0 521.5 -116t170.5 -368q0 -231 -178 -351t-514 -120h-140v-112q0 -48 21.5 -90t58.5 -56v-12h-364zM403 297h154q224 0 339.5 103t115.5 337 q0 129 -29.5 218.5t-89.5 142.5t-141.5 76.5t-194.5 23.5h-154v-901z" />
<glyph unicode="&#xdf;" horiz-adv-x="1325" d="M76 0v12q37 14 58.5 56t21.5 90v911q0 249 153.5 391t419.5 142q117 0 207 -28t144.5 -87.5t54.5 -143.5q0 -46 -20.5 -83.5t-53.5 -63t-73 -48t-79.5 -45t-72.5 -47.5t-53.5 -62t-20.5 -83t28.5 -85t73.5 -69t100 -60t110 -66.5t100 -80t73.5 -109t28.5 -144.5 q0 -59 -21.5 -113t-62.5 -99t-110.5 -72t-157.5 -27q-185 0 -342 104l59 160h10q33 -98 111 -169t162 -71q88 0 138 56.5t50 160.5q0 62 -23.5 116.5t-61.5 95t-83.5 78.5t-91 74.5t-83.5 74.5t-61.5 86.5t-23.5 103.5q0 62 28 116.5t67.5 94t79 77t67.5 83.5t28 96 q0 108 -61.5 180.5t-175.5 73.5q-78 1 -142 -27.5t-104.5 -74.5t-68 -106.5t-39 -121t-11.5 -121.5v-968q0 -48 21.5 -90t58.5 -56v-12h-356z" />
<glyph unicode="&#xe0;" horiz-adv-x="1069" d="M59 207q0 100 80.5 179t257.5 142l305 109v82q0 42 -6.5 80.5t-24 77.5t-45.5 67t-74 46t-106 18q-134 0 -225.5 -91.5t-91.5 -199.5h-10q0 95 44 180t135 142t210 57q200 0 294.5 -116t94.5 -316v-457q0 -135 90 -135q59 0 96 73h2l5 -6q-29 -81 -74.5 -117t-116.5 -36 q-73 0 -126.5 48.5t-67.5 147.5v6q-160 -202 -388 -202q-117 0 -187.5 60t-70.5 161zM236 244q0 -78 47 -128t131 -50q167 0 288 139v416l-219 -91q-247 -106 -247 -286zM240 1595v4h239l109 -337h-10z" />
<glyph unicode="&#xe1;" horiz-adv-x="1069" d="M59 207q0 100 80.5 179t257.5 142l305 109v82q0 42 -6.5 80.5t-24 77.5t-45.5 67t-74 46t-106 18q-134 0 -225.5 -91.5t-91.5 -199.5h-10q0 95 44 180t135 142t210 57q200 0 294.5 -116t94.5 -316v-457q0 -135 90 -135q59 0 96 73h2l5 -6q-29 -81 -74.5 -117t-116.5 -36 q-73 0 -126.5 48.5t-67.5 147.5v6q-160 -202 -388 -202q-117 0 -187.5 60t-70.5 161zM236 244q0 -78 47 -128t131 -50q167 0 288 139v416l-219 -91q-247 -106 -247 -286zM426 1262l111 337h237v-2l-338 -335h-10z" />
<glyph unicode="&#xe2;" horiz-adv-x="1069" d="M59 207q0 100 80.5 179t257.5 142l305 109v82q0 42 -6.5 80.5t-24 77.5t-45.5 67t-74 46t-106 18q-134 0 -225.5 -91.5t-91.5 -199.5h-10q0 95 44 180t135 142t210 57q200 0 294.5 -116t94.5 -316v-457q0 -135 90 -135q59 0 96 73h2l5 -6q-29 -81 -74.5 -117t-116.5 -36 q-73 0 -126.5 48.5t-67.5 147.5v6q-160 -202 -388 -202q-117 0 -187.5 60t-70.5 161zM201 1262v2l303 344h35l303 -344v-2h-11l-311 194l-309 -194h-10zM236 244q0 -78 47 -128t131 -50q167 0 288 139v416l-219 -91q-247 -106 -247 -286z" />
<glyph unicode="&#xe3;" horiz-adv-x="1069" d="M59 207q0 100 80.5 179t257.5 142l305 109v82q0 42 -6.5 80.5t-24 77.5t-45.5 67t-74 46t-106 18q-134 0 -225.5 -91.5t-91.5 -199.5h-10q0 95 44 180t135 142t210 57q200 0 294.5 -116t94.5 -316v-457q0 -135 90 -135q59 0 96 73h2l5 -6q-29 -81 -74.5 -117t-116.5 -36 q-73 0 -126.5 48.5t-67.5 147.5v6q-160 -202 -388 -202q-117 0 -187.5 60t-70.5 161zM190 1264q0 37 11 77t32.5 79.5t60.5 65t89 25.5q58 0 120 -26.5t115.5 -53t88.5 -26.5q55 0 95 29.5t40 83.5h10q2 -100 -44 -169t-126 -69q-41 0 -87.5 17t-81.5 37.5t-78 37.5t-77 17 q-64 0 -107.5 -42.5t-49.5 -82.5h-11zM236 244q0 -78 47 -128t131 -50q167 0 288 139v416l-219 -91q-247 -106 -247 -286z" />
<glyph unicode="&#xe4;" horiz-adv-x="1069" d="M59 207q0 100 80.5 179t257.5 142l305 109v82q0 42 -6.5 80.5t-24 77.5t-45.5 67t-74 46t-106 18q-134 0 -225.5 -91.5t-91.5 -199.5h-10q0 95 44 180t135 142t210 57q200 0 294.5 -116t94.5 -316v-457q0 -135 90 -135q59 0 96 73h2l5 -6q-29 -81 -74.5 -117t-116.5 -36 q-73 0 -126.5 48.5t-67.5 147.5v6q-160 -202 -388 -202q-117 0 -187.5 60t-70.5 161zM211 1438q0 50 32.5 83t84.5 33q48 0 81 -33.5t33 -82.5q0 -52 -33 -86.5t-81 -34.5q-52 0 -84.5 34t-32.5 87zM236 244q0 -78 47 -128t131 -50q167 0 288 139v416l-219 -91 q-247 -106 -247 -286zM584 1438q0 50 33 83t83 33t83.5 -33.5t33.5 -82.5q0 -52 -33.5 -86.5t-83.5 -34.5t-83 34.5t-33 86.5z" />
<glyph unicode="&#xe5;" horiz-adv-x="1069" d="M59 207q0 100 80.5 179t257.5 142l305 109v82q0 42 -6.5 80.5t-24 77.5t-45.5 67t-74 46t-106 18q-134 0 -225.5 -91.5t-91.5 -199.5h-10q0 95 44 180t135 142t210 57q200 0 294.5 -116t94.5 -316v-457q0 -135 90 -135q59 0 96 73h2l5 -6q-29 -81 -74.5 -117t-116.5 -36 q-73 0 -126.5 48.5t-67.5 147.5v6q-160 -202 -388 -202q-117 0 -187.5 60t-70.5 161zM236 244q0 -78 47 -128t131 -50q167 0 288 139v416l-219 -91q-247 -106 -247 -286zM340 1432q0 72 51.5 119.5t122.5 47.5q69 0 119.5 -47.5t50.5 -119.5q0 -71 -50.5 -118.5 t-119.5 -47.5q-71 0 -122.5 47.5t-51.5 118.5zM393 1434q0 -53 32 -87t89 -34q55 0 87 34t32 87q0 51 -32 84.5t-87 33.5q-57 0 -89 -33.5t-32 -84.5z" />
<glyph unicode="&#xe6;" horiz-adv-x="1738" d="M55 207q0 100 80.5 179t257.5 142l316 113v78q0 42 -6.5 80t-24 77t-45.5 67.5t-74 46.5t-106 18q-134 0 -224 -91.5t-90 -199.5h-14q0 70 26.5 137t74.5 121.5t123 87.5t165 33q235 -3 332 -168q67 80 163.5 124t209.5 44q221 0 336.5 -123.5t117.5 -335.5v-21h-751v-16 q0 -218 107 -359t282 -141q108 0 188 34t143 118l7 -8q-132 -258 -412 -258q-159 0 -282.5 74t-188.5 206q-79 -127 -196.5 -203.5t-256.5 -76.5q-117 0 -187.5 60t-70.5 161zM231 238q0 -80 47 -126t130 -46q56 0 107.5 16.5t86.5 38.5t68.5 56t50.5 56t37 52 q-49 117 -49 252v88l-232 -95q-137 -59 -191.5 -131.5t-54.5 -160.5zM922 641h567q0 209 -67 318.5t-199 109.5q-129 0 -210.5 -119.5t-90.5 -308.5z" />
<glyph unicode="&#xe7;" horiz-adv-x="1036" d="M82 537q0 158 65.5 284.5t191.5 200.5t292 74q183 0 334 -123l-74 -185h-6q0 1 -8 21.5t-12.5 30.5t-15.5 33.5t-19.5 38.5t-23 37.5t-27.5 37.5t-32 32t-37.5 27t-41.5 16.5t-47 6.5q-102 0 -178 -68.5t-113 -175t-37 -233.5q2 -222 105.5 -357t283.5 -135 q197 0 299 140l6 -9q-43 -105 -146.5 -175t-248.5 -70h-4l-25 -86q27 10 62 10q59 0 104 -40t45 -110q0 -77 -53 -120t-123 -43q-119 0 -172 100l10 4q42 -49 115 -49q42 0 70 26t28 76q0 42 -21.5 66t-54.5 24q-30 0 -51 -12l-8 4l47 150q-212 11 -345.5 160.5 t-133.5 390.5z" />
<glyph unicode="&#xe8;" horiz-adv-x="1110" d="M82 537q0 157 63.5 284t181 201t265.5 74q221 0 337 -123.5t118 -335.5v-21h-754v-16q0 -217 108 -358.5t281 -141.5q108 0 189.5 34.5t144.5 117.5l6 -8q-132 -258 -412 -258q-232 0 -380 151t-148 400zM293 641h567q0 209 -66 318.5t-198 109.5q-130 0 -212 -120 t-91 -308zM324 1595v2h237l111 -337h-10z" />
<glyph unicode="&#xe9;" horiz-adv-x="1110" d="M82 537q0 157 63.5 284t181 201t265.5 74q221 0 337 -123.5t118 -335.5v-21h-754v-16q0 -217 108 -358.5t281 -141.5q108 0 189.5 34.5t144.5 117.5l6 -8q-132 -258 -412 -258q-232 0 -380 151t-148 400zM293 641h567q0 209 -66 318.5t-198 109.5q-130 0 -212 -120 t-91 -308zM510 1260l111 339h237v-4l-338 -335h-10z" />
<glyph unicode="&#xea;" horiz-adv-x="1110" d="M82 537q0 157 63.5 284t181 201t265.5 74q221 0 337 -123.5t118 -335.5v-21h-754v-16q0 -217 108 -358.5t281 -141.5q108 0 189.5 34.5t144.5 117.5l6 -8q-132 -258 -412 -258q-232 0 -380 151t-148 400zM283 1260v2l305 344h35l303 -344v-2h-11l-311 194l-311 -194h-10z M293 641h567q0 209 -66 318.5t-198 109.5q-130 0 -212 -120t-91 -308z" />
<glyph unicode="&#xeb;" horiz-adv-x="1110" d="M82 537q0 157 63.5 284t181 201t265.5 74q221 0 337 -123.5t118 -335.5v-21h-754v-16q0 -217 108 -358.5t281 -141.5q108 0 189.5 34.5t144.5 117.5l6 -8q-132 -258 -412 -258q-232 0 -380 151t-148 400zM293 641h567q0 209 -66 318.5t-198 109.5q-130 0 -212 -120 t-91 -308zM293 1436q0 50 33 84t84 34q49 0 82.5 -34t33.5 -84q0 -52 -33 -86.5t-83 -34.5q-51 0 -84 34t-33 87zM668 1436q0 50 33 84t83 34q48 0 82.5 -34.5t34.5 -83.5q0 -52 -34.5 -86.5t-82.5 -34.5q-51 0 -83.5 34t-32.5 87z" />
<glyph unicode="&#xec;" horiz-adv-x="518" d="M-4 1595v4h237l111 -337h-10zM80 973v10q38 14 144 50.5t132 45.5h9v-921q0 -50 18.5 -91t54.5 -55v-12h-344v12q36 14 54 55t18 91v639q0 63 -20.5 100t-65.5 76z" />
<glyph unicode="&#xed;" horiz-adv-x="518" d="M80 973v10q38 14 144 50.5t132 45.5h9v-921q0 -50 18.5 -91t54.5 -55v-12h-344v12q36 14 54 55t18 91v639q0 63 -20.5 100t-65.5 76zM182 1262l109 337h239v-2l-337 -335h-11z" />
<glyph unicode="&#xee;" horiz-adv-x="518" d="M-45 1262v2l305 344h35l301 -344v-2h-10l-312 194l-309 -194h-10zM80 973v10q38 14 144 50.5t132 45.5h9v-921q0 -50 18.5 -91t54.5 -55v-12h-344v12q36 14 54 55t18 91v639q0 63 -20.5 100t-65.5 76z" />
<glyph unicode="&#xef;" horiz-adv-x="518" d="M-35 1438q0 50 33 83t84 33q48 0 81.5 -33.5t33.5 -82.5q0 -52 -33.5 -86.5t-81.5 -34.5q-51 0 -84 34t-33 87zM80 973v10q38 14 144 50.5t132 45.5h9v-921q0 -50 18.5 -91t54.5 -55v-12h-344v12q36 14 54 55t18 91v639q0 63 -20.5 100t-65.5 76zM338 1438q0 50 34 83 t85 33q48 0 82 -33.5t34 -82.5q0 -52 -34 -86.5t-82 -34.5q-51 0 -85 34.5t-34 86.5z" />
<glyph unicode="&#xf0;" horiz-adv-x="1220" d="M82 508q0 146 65.5 265.5t185.5 190t271 70.5q148 0 262 -102q-90 271 -260 438l-203 -137l-22 35l194 131q-172 155 -385 164l7 14q247 6 456 -125l176 119l23 -33l-162 -111q203 -138 321.5 -368.5t118.5 -476.5q0 -145 -40.5 -260t-112 -187.5t-166 -110.5t-205.5 -38 q-232 0 -378 150t-146 372zM293 518q0 -232 87.5 -369t225.5 -137q141 0 227.5 138t86.5 368q-1 222 -88 355t-226 133q-138 0 -225 -132.5t-88 -355.5z" />
<glyph unicode="&#xf1;" horiz-adv-x="1214" d="M78 969v8q42 16 140 51.5t128 46.5h10v-186q59 92 162 149.5t223 57.5q79 0 139 -27.5t95 -70.5t57 -104t29.5 -118t7.5 -123v-495q0 -49 19 -90.5t55 -55.5v-12h-344v12q71 28 71 146v540q0 155 -62.5 233.5t-164.5 78.5q-177 0 -278 -133v-719q0 -50 17.5 -91t53.5 -55 v-12h-342v12q72 28 72 146v635q0 63 -21 100t-67 76zM297 1264q0 37 11 77.5t32.5 80t61 65.5t90.5 26q57 0 118.5 -26.5t114.5 -53t88 -26.5q56 0 95.5 29t39.5 84h10q2 -101 -43.5 -170.5t-126.5 -69.5q-41 0 -87.5 17t-81.5 37.5t-77.5 37.5t-76.5 17q-64 0 -108 -42.5 t-50 -82.5h-10z" />
<glyph unicode="&#xf2;" horiz-adv-x="1210" d="M80 537q0 157 68.5 285t189 201t268.5 73q231 0 377.5 -153.5t146.5 -397.5q0 -161 -68 -289t-187.5 -199t-268.5 -71q-233 0 -379.5 151.5t-146.5 399.5zM293 541q0 -252 86 -391.5t227 -139.5q142 0 227.5 139.5t84.5 391.5q0 249 -86 388.5t-226 139.5 q-141 0 -227 -139t-86 -389zM350 1597v5h238l110 -340h-10z" />
<glyph unicode="&#xf3;" horiz-adv-x="1210" d="M80 537q0 157 68.5 285t189 201t268.5 73q231 0 377.5 -153.5t146.5 -397.5q0 -161 -68 -289t-187.5 -199t-268.5 -71q-233 0 -379.5 151.5t-146.5 399.5zM293 541q0 -252 86 -391.5t227 -139.5q142 0 227.5 139.5t84.5 391.5q0 249 -86 388.5t-226 139.5 q-141 0 -227 -139t-86 -389zM537 1264l110 338h238v-5l-338 -333h-10z" />
<glyph unicode="&#xf4;" horiz-adv-x="1210" d="M80 537q0 157 68.5 285t189 201t268.5 73q231 0 377.5 -153.5t146.5 -397.5q0 -161 -68 -289t-187.5 -199t-268.5 -71q-233 0 -379.5 151.5t-146.5 399.5zM285 1264v2l303 342h35l303 -342v-2h-11l-311 194l-309 -194h-10zM293 541q0 -252 86 -391.5t227 -139.5 q142 0 227.5 139.5t84.5 391.5q0 249 -86 388.5t-226 139.5q-141 0 -227 -139t-86 -389z" />
<glyph unicode="&#xf5;" horiz-adv-x="1210" d="M80 537q0 157 68.5 285t189 201t268.5 73q231 0 377.5 -153.5t146.5 -397.5q0 -161 -68 -289t-187.5 -199t-268.5 -71q-233 0 -379.5 151.5t-146.5 399.5zM285 1264q0 38 10.5 78.5t31.5 80t60 65t90 25.5q58 0 120 -26.5t115.5 -53t88.5 -26.5q55 0 95 29.5t40 83.5h10 q2 -100 -44 -169t-126 -69q-41 0 -87.5 17t-81.5 37.5t-77.5 37.5t-76.5 17q-64 0 -108 -43.5t-50 -83.5h-10zM293 541q0 -252 86 -391.5t227 -139.5q142 0 227.5 139.5t84.5 391.5q0 249 -86 388.5t-226 139.5q-141 0 -227 -139t-86 -389z" />
<glyph unicode="&#xf6;" horiz-adv-x="1210" d="M80 537q0 157 68.5 285t189 201t268.5 73q231 0 377.5 -153.5t146.5 -397.5q0 -161 -68 -289t-187.5 -199t-268.5 -71q-233 0 -379.5 151.5t-146.5 399.5zM293 541q0 -252 86 -391.5t227 -139.5q142 0 227.5 139.5t84.5 391.5q0 249 -86 388.5t-226 139.5 q-141 0 -227 -139t-86 -389zM319 1438q0 51 33 84.5t84 33.5q48 0 81.5 -34t33.5 -84q0 -52 -33.5 -85.5t-81.5 -33.5q-51 0 -84 33.5t-33 85.5zM694 1438q0 51 33 84.5t84 33.5q48 0 82.5 -34t34.5 -84q0 -51 -34.5 -85t-82.5 -34q-51 0 -84 33.5t-33 85.5z" />
<glyph unicode="&#xf7;" horiz-adv-x="901" d="M121 510v33h659v-33h-659zM309 860q0 54 39 92.5t94 38.5q54 0 91.5 -38.5t37.5 -92.5q0 -56 -37.5 -94.5t-91.5 -38.5q-55 0 -94 40t-39 93zM311 172q0 54 38 92.5t93 38.5q54 0 92.5 -38.5t38.5 -92.5q0 -55 -38.5 -94t-92.5 -39q-55 0 -93 40t-38 93z" />
<glyph unicode="&#xf8;" horiz-adv-x="1210" d="M80 537q0 157 68.5 285t189 201t268.5 73q142 0 258 -64l60 107h39l-68 -123q110 -70 172.5 -193t62.5 -278q0 -161 -68 -289t-187.5 -199t-268.5 -71q-140 0 -254 57l-63 -113h-39l72 131q-114 68 -178 191.5t-64 284.5zM293 541q0 -244 82 -385l444 794 q-84 119 -213 119q-141 0 -227 -139t-86 -389zM395 123q84 -113 211 -113q142 0 227.5 139.5t84.5 391.5q0 234 -78 377z" />
<glyph unicode="&#xf9;" horiz-adv-x="1179" d="M59 969v8q40 15 148.5 52.5t130.5 45.5h8v-702q0 -150 63 -225.5t173 -75.5q142 0 245 127v594q0 63 -21 100t-67 76v8l277 98h10v-917q0 -50 18 -91t54 -55v-12h-252l-10 184q-65 -86 -157 -142t-192 -56q-169 0 -254.5 107.5t-85.5 303.5v396q0 63 -21 100t-67 76z M324 1595v4h237l111 -337h-10z" />
<glyph unicode="&#xfa;" horiz-adv-x="1179" d="M59 969v8q40 15 148.5 52.5t130.5 45.5h8v-702q0 -150 63 -225.5t173 -75.5q142 0 245 127v594q0 63 -21 100t-67 76v8l277 98h10v-917q0 -50 18 -91t54 -55v-12h-252l-10 184q-65 -86 -157 -142t-192 -56q-169 0 -254.5 107.5t-85.5 303.5v396q0 63 -21 100t-67 76z M510 1262l111 337h237v-2l-338 -335h-10z" />
<glyph unicode="&#xfb;" horiz-adv-x="1179" d="M59 969v8q40 15 148.5 52.5t130.5 45.5h8v-702q0 -150 63 -225.5t173 -75.5q142 0 245 127v594q0 63 -21 100t-67 76v8l277 98h10v-917q0 -50 18 -91t54 -55v-12h-252l-10 184q-65 -86 -157 -142t-192 -56q-169 0 -254.5 107.5t-85.5 303.5v396q0 63 -21 100t-67 76z M285 1262v2l303 344h35l303 -344v-2h-11l-311 194l-309 -194h-10z" />
<glyph unicode="&#xfc;" horiz-adv-x="1179" d="M59 969v8q40 15 148.5 52.5t130.5 45.5h8v-702q0 -150 63 -225.5t173 -75.5q142 0 245 127v594q0 63 -21 100t-67 76v8l277 98h10v-917q0 -50 18 -91t54 -55v-12h-252l-10 184q-65 -86 -157 -142t-192 -56q-169 0 -254.5 107.5t-85.5 303.5v396q0 63 -21 100t-67 76z M295 1438q0 50 32.5 83t84.5 33q48 0 81 -33.5t33 -82.5q0 -52 -33 -86.5t-81 -34.5q-52 0 -84.5 34t-32.5 87zM668 1438q0 50 33 83t83 33q48 0 82.5 -33.5t34.5 -82.5q0 -52 -34.5 -86.5t-82.5 -34.5q-50 0 -83 34.5t-33 86.5z" />
<glyph unicode="&#xfd;" horiz-adv-x="1019" d="M-16 1049v12h395v-12q-123 -49 -66 -183l291 -694l266 711q19 47 -4 94.5t-78 73.5v10h252v-10q-87 -41 -131 -156l-405 -1065q-105 -270 -279 -270q-90 0 -164 63l48 131h10q26 -33 75.5 -58t94.5 -24q116 0 172 123l47 107l-397 970q-30 70 -56 108t-71 69zM401 1260 l111 337h238v-4l-338 -333h-11z" />
<glyph unicode="&#xfe;" horiz-adv-x="1206" d="M57 1473v10q40 15 140.5 50t136.5 48h10v-692q61 95 154 150t207 55q180 0 298.5 -146.5t118.5 -406.5q0 -127 -39 -233.5t-105 -176t-150.5 -107.5t-176.5 -38q-78 0 -163 32.5t-144 90.5v-357q0 -50 18 -90.5t54 -54.5v-13h-342v13q71 28 71 145v1544q0 64 -21 101 t-67 76zM344 131q88 -82 236 -82q150 0 239.5 118t89.5 357q0 227 -78 355.5t-208 128.5q-83 0 -157 -38t-122 -104v-735z" />
<glyph unicode="&#xff;" horiz-adv-x="1019" d="M-16 1049v12h395v-12q-123 -49 -66 -183l291 -694l266 711q19 47 -4 94.5t-78 73.5v10h252v-10q-87 -41 -131 -156l-405 -1065q-105 -270 -279 -270q-90 0 -164 63l48 131h10q26 -33 75.5 -58t94.5 -24q116 0 172 123l47 107l-397 970q-30 70 -56 108t-71 69zM217 1434 q0 51 33 84.5t84 33.5q48 0 81.5 -34t33.5 -84q0 -52 -33.5 -85.5t-81.5 -33.5q-51 0 -84 33.5t-33 85.5zM590 1434q0 51 34 84.5t85 33.5q48 0 82 -34t34 -84q0 -52 -34 -85.5t-82 -33.5q-51 0 -85 33.5t-34 85.5z" />
<glyph unicode="&#x152;" horiz-adv-x="2095" d="M94 750q0 219 96.5 391.5t265.5 267t380 94.5q143 0 260 -51v39h864l51 -277h-10q-104 250 -397 250h-301v-635h348q55 0 99 49t60 121h13v-370h-13q-16 69 -59 118.5t-100 49.5h-348v-760h303q295 0 401 239h10l-51 -276h-872v35q-126 -49 -258 -49q-158 0 -295.5 56 t-235.5 155.5t-154.5 242.5t-56.5 310zM326 750q1 -343 140 -539.5t374 -196.5q124 0 254 70l2 1321q-122 72 -256 72q-236 0 -375 -194.5t-139 -532.5z" />
<glyph unicode="&#x153;" horiz-adv-x="1945" d="M80 537q0 157 68.5 285t189 201t268.5 73q132 0 240.5 -53t179.5 -150q67 96 170.5 149.5t230.5 53.5q221 0 337 -123.5t118 -335.5v-21h-752v-16q0 -218 107.5 -359t280.5 -141q108 0 189 34t144 118l7 -8q-132 -258 -412 -258q-135 0 -245 53t-181 151 q-72 -97 -178.5 -150.5t-235.5 -53.5q-233 0 -379.5 151.5t-146.5 399.5zM293 541q0 -252 86 -391.5t227 -139.5q140 0 226 136.5t86 383.5v7v2v2q0 249 -86 388.5t-226 139.5q-141 0 -227 -139t-86 -389zM1130 641h568q0 209 -67 318.5t-199 109.5q-129 0 -211 -120 t-91 -308z" />
<glyph unicode="&#x178;" horiz-adv-x="1263" d="M0 1479v12h389v-12q-54 -21 -56 -59t38 -111l354 -688l354 682q63 119 -75 176v12h294v-12q-59 -20 -105.5 -71.5t-76.5 -111.5l-375 -721v-417q0 -48 21.5 -90t58.5 -56v-12h-381v12q37 14 58.5 56t21.5 90v411l-368 723q-1 2 -8.5 18t-10 20.5t-10.5 19.5t-12.5 21.5 t-13 20.5t-15 21t-17 18.5t-20 18.5t-21 15t-24.5 14zM338 1802q0 48 32.5 80.5t82.5 32.5q46 0 79 -33t33 -80q0 -49 -32.5 -80.5t-79.5 -31.5q-51 0 -83 31t-32 81zM772 1802q0 48 32 80.5t81 32.5q46 0 79 -33t33 -80q0 -49 -32.5 -80.5t-79.5 -31.5q-50 0 -81.5 31.5 t-31.5 80.5z" />
<glyph unicode="&#x2c6;" horiz-adv-x="0" d="M-672 1198v2l305 344h35l301 -344v-2h-10l-311 195l-310 -195h-10z" />
<glyph unicode="&#x2dc;" horiz-adv-x="0" d="M-709 1200q0 37 10.5 77.5t32 80t60.5 65t90 25.5q58 0 120 -27t114.5 -53.5t86.5 -26.5q55 0 95.5 29.5t40.5 83.5h12q2 -100 -44 -168.5t-128 -68.5q-51 0 -110 27t-114.5 54t-97.5 27q-65 0 -108 -42.5t-49 -82.5h-11z" />
<glyph unicode="&#x2000;" horiz-adv-x="985" />
<glyph unicode="&#x2001;" horiz-adv-x="1970" />
<glyph unicode="&#x2002;" horiz-adv-x="985" />
<glyph unicode="&#x2003;" horiz-adv-x="1970" />
<glyph unicode="&#x2004;" horiz-adv-x="656" />
<glyph unicode="&#x2005;" horiz-adv-x="492" />
<glyph unicode="&#x2006;" horiz-adv-x="328" />
<glyph unicode="&#x2007;" horiz-adv-x="328" />
<glyph unicode="&#x2008;" horiz-adv-x="246" />
<glyph unicode="&#x2009;" horiz-adv-x="394" />
<glyph unicode="&#x200a;" horiz-adv-x="109" />
<glyph unicode="&#x2010;" horiz-adv-x="847" d="M68 694v41h712v-41h-712z" />
<glyph unicode="&#x2011;" horiz-adv-x="847" d="M68 694v41h712v-41h-712z" />
<glyph unicode="&#x2012;" horiz-adv-x="847" d="M68 694v41h712v-41h-712z" />
<glyph unicode="&#x2013;" horiz-adv-x="1052" d="M68 690v41h917v-41h-917z" />
<glyph unicode="&#x2014;" horiz-adv-x="1554" d="M68 690v41h1419v-41h-1419z" />
<glyph unicode="&#x2018;" horiz-adv-x="468" d="M88 1243q0 74 33.5 145.5t101.5 128t158 78.5l6 -16v-2q-80 -24 -137.5 -90.5t-61.5 -151.5q21 6 50 6q59 0 98 -35.5t39 -93.5q0 -60 -41 -101.5t-101 -41.5q-65 0 -105 46.5t-40 127.5z" />
<glyph unicode="&#x2019;" horiz-adv-x="473" d="M104 1161v2q79 24 136 90.5t61 151.5q-18 -6 -47 -6q-61 0 -99 36t-38 95t40 100t101 41q64 0 104.5 -46t40.5 -128q0 -113 -80 -215.5t-212 -136.5z" />
<glyph unicode="&#x201a;" horiz-adv-x="503" d="M94 -233q80 24 136.5 90t60.5 151q-18 -6 -47 -6q-61 0 -99.5 35.5t-38.5 93.5q0 60 41 101.5t101 41.5q64 0 104.5 -47t40.5 -129q0 -114 -80 -216t-213 -134l-6 16v3z" />
<glyph unicode="&#x201c;" horiz-adv-x="866" d="M88 1243q0 74 33.5 145.5t101.5 128t158 78.5l6 -16v-2q-80 -24 -137.5 -90.5t-61.5 -151.5q21 6 50 6q59 0 98 -35.5t39 -93.5q0 -60 -41 -101.5t-101 -41.5q-65 0 -105 46.5t-40 127.5zM485 1243q0 74 34 145.5t102 128t157 78.5l6 -16v-2q-79 -24 -135.5 -90.5 t-60.5 -151.5q18 6 47 6q61 0 99 -35.5t38 -93.5q0 -60 -40.5 -101.5t-100.5 -41.5q-64 0 -105 46.5t-41 127.5z" />
<glyph unicode="&#x201d;" horiz-adv-x="894" d="M104 1161v2q79 24 136 90.5t61 151.5q-18 -6 -47 -6q-61 0 -99 36t-38 95t40 100t101 41q64 0 104.5 -46t40.5 -128q0 -113 -80 -215.5t-212 -136.5zM526 1161v2q80 24 136.5 90.5t60.5 151.5q-18 -6 -47 -6q-61 0 -99 36t-38 95t40.5 100t100.5 41q64 0 104.5 -46 t40.5 -128q0 -113 -80.5 -215.5t-212.5 -136.5z" />
<glyph unicode="&#x201e;" horiz-adv-x="927" d="M94 -233q80 24 136.5 90t60.5 151q-18 -6 -47 -6q-61 0 -99.5 35.5t-38.5 93.5q0 60 41 101.5t101 41.5q64 0 104.5 -47t40.5 -129q0 -114 -80 -216t-213 -134l-6 16v3zM518 -233q79 24 136 90t63 151q-21 -6 -49 -6q-59 0 -98.5 35.5t-39.5 93.5q0 60 41 101.5t101 41.5 q65 0 105 -46.5t40 -129.5q0 -114 -80 -216t-213 -134l-6 16v3z" />
<glyph unicode="&#x2022;" horiz-adv-x="751" d="M176 707q0 79 58.5 135.5t142.5 56.5q83 0 140.5 -56.5t57.5 -135.5q0 -80 -57.5 -136.5t-140.5 -56.5q-84 0 -142.5 56.5t-58.5 136.5z" />
<glyph unicode="&#x2026;" horiz-adv-x="1372" d="M102 127q0 57 41 97t99 40q57 0 98 -40t41 -97q0 -58 -41 -99.5t-98 -41.5q-58 0 -99 42.5t-41 98.5zM547 127q0 57 40.5 97t98.5 40t98.5 -40t40.5 -97q0 -59 -40.5 -100t-98.5 -41t-98.5 42.5t-40.5 98.5zM991 127q0 57 40.5 97t98.5 40t99 -40t41 -97q0 -59 -41 -100 t-99 -41t-98.5 42.5t-40.5 98.5z" />
<glyph unicode="&#x202f;" horiz-adv-x="394" />
<glyph unicode="&#x2039;" horiz-adv-x="727" d="M86 596v51l510 336v-43l-457 -317l457 -318v-41z" />
<glyph unicode="&#x203a;" horiz-adv-x="727" d="M131 264v43l457 316l-457 319v43l510 -336v-51z" />
<glyph unicode="&#x205f;" horiz-adv-x="492" />
<glyph unicode="&#x20ac;" horiz-adv-x="1394" d="M80 692l2 29h233v24q0 79 9 146h-181l4 31h179q20 150 75 264t133.5 182t171.5 101.5t197 33.5q67 0 126 -19.5t111 -60.5t86.5 -114.5t43.5 -173.5h-10q-11 75 -38.5 132t-61 89.5t-77.5 52.5t-81.5 26.5t-77.5 6.5q-155 0 -250.5 -130.5t-118.5 -389.5h352l-4 -29h-350 q-4 -94 -4 -145v-27h297l-6 -29h-291q9 -315 107 -480t268 -165q40 0 77 6.5t81 26.5t77.5 52.5t61.5 89.5t39 132h10q-11 -100 -45.5 -173.5t-87.5 -114.5t-115 -60.5t-135 -19.5q-86 0 -165 24.5t-151.5 79.5t-127 136t-89 200.5t-39.5 265.5h-235z" />
<glyph unicode="&#x2122;" horiz-adv-x="1644" d="M63 1346l27 145h586l26 -145h-6q-23 52 -67 88t-105 36h-88v-618q0 -52 43 -70v-8h-194v8q39 17 39 70v618h-84q-60 0 -104.5 -36t-69.5 -88h-3zM721 774v6q43 34 43 80v553q0 51 -39 70v8h141l258 -571l258 571h123v-8q-37 -18 -37 -70v-561q0 -51 39 -70v-8h-190v8 q39 19 39 70v522l-266 -598h-11l-288 633v-549q0 -50 40 -80v-6h-110z" />
<glyph unicode="&#x25fc;" horiz-adv-x="1064" d="M0 0v1065h1065v-1065h-1065z" />
<glyph unicode="&#xfb03;" horiz-adv-x="1665" d="M43 1036v25h129v55q0 176 97 282.5t278 106.5q159 0 256 -94q107 174 346 174q179 0 338 -112l-84 -205h-12q-11 52 -30 99.5t-48 91.5t-72 70.5t-94 26.5q-207 0 -207 -333v-162h571v-903q0 -50 18 -91t54 -55v-12h-342v12q36 14 54 55t18 91v878h-373v-878 q0 -49 19 -90.5t55 -55.5v-12h-344v12q71 28 71 146v878h-372v-878q0 -50 18.5 -91t54.5 -55v-12h-342v12q72 28 72 146v878h-129zM369 1061h372v98v4q0 145 -44 229.5t-136 84.5q-104 0 -148 -76.5t-44 -216.5v-123z" />
</font>
</defs>
</svg>
