<?xml version="1.0" standalone="no"?>
<!DOCTYPE svg PUBLIC "-//W3C//DTD SVG 1.1//EN" "http://www.w3.org/Graphics/SVG/1.1/DTD/svg11.dtd" >
<svg xmlns="http://www.w3.org/2000/svg" xmlns:xlink="http://www.w3.org/1999/xlink" version="1.1">
<metadata></metadata>
<defs>
<font id="the_seasonslight" horiz-adv-x="1224" >
<font-face units-per-em="2048" ascent="1638" descent="-410" />
<missing-glyph horiz-adv-x="450" />
<glyph horiz-adv-x="0" />
<glyph horiz-adv-x="682" />
<glyph unicode=" "  horiz-adv-x="450" />
<glyph unicode="&#x09;" horiz-adv-x="450" />
<glyph unicode="&#xa0;" horiz-adv-x="450" />
<glyph unicode="!" d="M129 154v292q61 9 76 9q67 0 96 -37.5t29 -116.5t-29.5 -115t-97.5 -36q-47 0 -74 4zM158 780q0 53 33.5 91t93.5 38q39 0 78 -21t69.5 -55t58.5 -74.5t48 -81.5t35 -75t22 -55l8 -21q-117 148 -319 148q-49 0 -88 30t-39 76zM188 201q4 -2 19 -2q37 0 50 25t13 77 q0 54 -13 78t-50 24q-13 0 -19 -2v-200zM377 154v297h155v-52h-96v-69h82v-49h-82v-78h96v-49h-155zM437 1128.5q-7 46.5 24 83.5q23 23 53 34t65 3.5t64 -35.5q38 -37 48.5 -102t-2.5 -131t-31.5 -126.5t-35.5 -98.5l-18 -39q20 191 -125 330q-35 35 -42 81.5zM571 154 q3 156 15 297h80l39 -164l38 164h82q3 -45 13 -297h-60q0 108 -6 213l-41 -168h-55l-41 168h-2q-4 -140 -4 -213h-58zM647 633q3 8 9 22t25 53.5t39 75.5t50 80.5t59.5 76t66 53.5t71.5 22q49 0 79.5 -24.5t39 -51t8.5 -53.5q0 -43 -34.5 -72.5t-72.5 -34.5 q-213 -23 -340 -147zM879 301q0 81 24 117.5t84 36.5t85.5 -37t25.5 -117q0 -79 -25.5 -115t-85.5 -36t-84 35.5t-24 115.5zM938 301q0 -54 10 -78t39 -24q30 0 40.5 24t10.5 78q0 55 -10 78.5t-41 23.5q-29 0 -39 -23.5t-10 -78.5z" />
<glyph unicode="&#x22;" d="M129 154v292q61 9 76 9q67 0 96 -37.5t29 -116.5t-29.5 -115t-97.5 -36q-47 0 -74 4zM158 780q0 53 33.5 91t93.5 38q39 0 78 -21t69.5 -55t58.5 -74.5t48 -81.5t35 -75t22 -55l8 -21q-117 148 -319 148q-49 0 -88 30t-39 76zM188 201q4 -2 19 -2q37 0 50 25t13 77 q0 54 -13 78t-50 24q-13 0 -19 -2v-200zM377 154v297h155v-52h-96v-69h82v-49h-82v-78h96v-49h-155zM437 1128.5q-7 46.5 24 83.5q23 23 53 34t65 3.5t64 -35.5q38 -37 48.5 -102t-2.5 -131t-31.5 -126.5t-35.5 -98.5l-18 -39q20 191 -125 330q-35 35 -42 81.5zM571 154 q3 156 15 297h80l39 -164l38 164h82q3 -45 13 -297h-60q0 108 -6 213l-41 -168h-55l-41 168h-2q-4 -140 -4 -213h-58zM647 633q3 8 9 22t25 53.5t39 75.5t50 80.5t59.5 76t66 53.5t71.5 22q49 0 79.5 -24.5t39 -51t8.5 -53.5q0 -43 -34.5 -72.5t-72.5 -34.5 q-213 -23 -340 -147zM879 301q0 81 24 117.5t84 36.5t85.5 -37t25.5 -117q0 -79 -25.5 -115t-85.5 -36t-84 35.5t-24 115.5zM938 301q0 -54 10 -78t39 -24q30 0 40.5 24t10.5 78q0 55 -10 78.5t-41 23.5q-29 0 -39 -23.5t-10 -78.5z" />
<glyph unicode="#" d="M129 154v292q61 9 76 9q67 0 96 -37.5t29 -116.5t-29.5 -115t-97.5 -36q-47 0 -74 4zM158 780q0 53 33.5 91t93.5 38q39 0 78 -21t69.5 -55t58.5 -74.5t48 -81.5t35 -75t22 -55l8 -21q-117 148 -319 148q-49 0 -88 30t-39 76zM188 201q4 -2 19 -2q37 0 50 25t13 77 q0 54 -13 78t-50 24q-13 0 -19 -2v-200zM377 154v297h155v-52h-96v-69h82v-49h-82v-78h96v-49h-155zM437 1128.5q-7 46.5 24 83.5q23 23 53 34t65 3.5t64 -35.5q38 -37 48.5 -102t-2.5 -131t-31.5 -126.5t-35.5 -98.5l-18 -39q20 191 -125 330q-35 35 -42 81.5zM571 154 q3 156 15 297h80l39 -164l38 164h82q3 -45 13 -297h-60q0 108 -6 213l-41 -168h-55l-41 168h-2q-4 -140 -4 -213h-58zM647 633q3 8 9 22t25 53.5t39 75.5t50 80.5t59.5 76t66 53.5t71.5 22q49 0 79.5 -24.5t39 -51t8.5 -53.5q0 -43 -34.5 -72.5t-72.5 -34.5 q-213 -23 -340 -147zM879 301q0 81 24 117.5t84 36.5t85.5 -37t25.5 -117q0 -79 -25.5 -115t-85.5 -36t-84 35.5t-24 115.5zM938 301q0 -54 10 -78t39 -24q30 0 40.5 24t10.5 78q0 55 -10 78.5t-41 23.5q-29 0 -39 -23.5t-10 -78.5z" />
<glyph unicode="$" d="M129 154v292q61 9 76 9q67 0 96 -37.5t29 -116.5t-29.5 -115t-97.5 -36q-47 0 -74 4zM158 780q0 53 33.5 91t93.5 38q39 0 78 -21t69.5 -55t58.5 -74.5t48 -81.5t35 -75t22 -55l8 -21q-117 148 -319 148q-49 0 -88 30t-39 76zM188 201q4 -2 19 -2q37 0 50 25t13 77 q0 54 -13 78t-50 24q-13 0 -19 -2v-200zM377 154v297h155v-52h-96v-69h82v-49h-82v-78h96v-49h-155zM437 1128.5q-7 46.5 24 83.5q23 23 53 34t65 3.5t64 -35.5q38 -37 48.5 -102t-2.5 -131t-31.5 -126.5t-35.5 -98.5l-18 -39q20 191 -125 330q-35 35 -42 81.5zM571 154 q3 156 15 297h80l39 -164l38 164h82q3 -45 13 -297h-60q0 108 -6 213l-41 -168h-55l-41 168h-2q-4 -140 -4 -213h-58zM647 633q3 8 9 22t25 53.5t39 75.5t50 80.5t59.5 76t66 53.5t71.5 22q49 0 79.5 -24.5t39 -51t8.5 -53.5q0 -43 -34.5 -72.5t-72.5 -34.5 q-213 -23 -340 -147zM879 301q0 81 24 117.5t84 36.5t85.5 -37t25.5 -117q0 -79 -25.5 -115t-85.5 -36t-84 35.5t-24 115.5zM938 301q0 -54 10 -78t39 -24q30 0 40.5 24t10.5 78q0 55 -10 78.5t-41 23.5q-29 0 -39 -23.5t-10 -78.5z" />
<glyph unicode="%" d="M129 154v292q61 9 76 9q67 0 96 -37.5t29 -116.5t-29.5 -115t-97.5 -36q-47 0 -74 4zM158 780q0 53 33.5 91t93.5 38q39 0 78 -21t69.5 -55t58.5 -74.5t48 -81.5t35 -75t22 -55l8 -21q-117 148 -319 148q-49 0 -88 30t-39 76zM188 201q4 -2 19 -2q37 0 50 25t13 77 q0 54 -13 78t-50 24q-13 0 -19 -2v-200zM377 154v297h155v-52h-96v-69h82v-49h-82v-78h96v-49h-155zM437 1128.5q-7 46.5 24 83.5q23 23 53 34t65 3.5t64 -35.5q38 -37 48.5 -102t-2.5 -131t-31.5 -126.5t-35.5 -98.5l-18 -39q20 191 -125 330q-35 35 -42 81.5zM571 154 q3 156 15 297h80l39 -164l38 164h82q3 -45 13 -297h-60q0 108 -6 213l-41 -168h-55l-41 168h-2q-4 -140 -4 -213h-58zM647 633q3 8 9 22t25 53.5t39 75.5t50 80.5t59.5 76t66 53.5t71.5 22q49 0 79.5 -24.5t39 -51t8.5 -53.5q0 -43 -34.5 -72.5t-72.5 -34.5 q-213 -23 -340 -147zM879 301q0 81 24 117.5t84 36.5t85.5 -37t25.5 -117q0 -79 -25.5 -115t-85.5 -36t-84 35.5t-24 115.5zM938 301q0 -54 10 -78t39 -24q30 0 40.5 24t10.5 78q0 55 -10 78.5t-41 23.5q-29 0 -39 -23.5t-10 -78.5z" />
<glyph unicode="&#x26;" d="M129 154v292q61 9 76 9q67 0 96 -37.5t29 -116.5t-29.5 -115t-97.5 -36q-47 0 -74 4zM158 780q0 53 33.5 91t93.5 38q39 0 78 -21t69.5 -55t58.5 -74.5t48 -81.5t35 -75t22 -55l8 -21q-117 148 -319 148q-49 0 -88 30t-39 76zM188 201q4 -2 19 -2q37 0 50 25t13 77 q0 54 -13 78t-50 24q-13 0 -19 -2v-200zM377 154v297h155v-52h-96v-69h82v-49h-82v-78h96v-49h-155zM437 1128.5q-7 46.5 24 83.5q23 23 53 34t65 3.5t64 -35.5q38 -37 48.5 -102t-2.5 -131t-31.5 -126.5t-35.5 -98.5l-18 -39q20 191 -125 330q-35 35 -42 81.5zM571 154 q3 156 15 297h80l39 -164l38 164h82q3 -45 13 -297h-60q0 108 -6 213l-41 -168h-55l-41 168h-2q-4 -140 -4 -213h-58zM647 633q3 8 9 22t25 53.5t39 75.5t50 80.5t59.5 76t66 53.5t71.5 22q49 0 79.5 -24.5t39 -51t8.5 -53.5q0 -43 -34.5 -72.5t-72.5 -34.5 q-213 -23 -340 -147zM879 301q0 81 24 117.5t84 36.5t85.5 -37t25.5 -117q0 -79 -25.5 -115t-85.5 -36t-84 35.5t-24 115.5zM938 301q0 -54 10 -78t39 -24q30 0 40.5 24t10.5 78q0 55 -10 78.5t-41 23.5q-29 0 -39 -23.5t-10 -78.5z" />
<glyph unicode="'" d="M129 154v292q61 9 76 9q67 0 96 -37.5t29 -116.5t-29.5 -115t-97.5 -36q-47 0 -74 4zM158 780q0 53 33.5 91t93.5 38q39 0 78 -21t69.5 -55t58.5 -74.5t48 -81.5t35 -75t22 -55l8 -21q-117 148 -319 148q-49 0 -88 30t-39 76zM188 201q4 -2 19 -2q37 0 50 25t13 77 q0 54 -13 78t-50 24q-13 0 -19 -2v-200zM377 154v297h155v-52h-96v-69h82v-49h-82v-78h96v-49h-155zM437 1128.5q-7 46.5 24 83.5q23 23 53 34t65 3.5t64 -35.5q38 -37 48.5 -102t-2.5 -131t-31.5 -126.5t-35.5 -98.5l-18 -39q20 191 -125 330q-35 35 -42 81.5zM571 154 q3 156 15 297h80l39 -164l38 164h82q3 -45 13 -297h-60q0 108 -6 213l-41 -168h-55l-41 168h-2q-4 -140 -4 -213h-58zM647 633q3 8 9 22t25 53.5t39 75.5t50 80.5t59.5 76t66 53.5t71.5 22q49 0 79.5 -24.5t39 -51t8.5 -53.5q0 -43 -34.5 -72.5t-72.5 -34.5 q-213 -23 -340 -147zM879 301q0 81 24 117.5t84 36.5t85.5 -37t25.5 -117q0 -79 -25.5 -115t-85.5 -36t-84 35.5t-24 115.5zM938 301q0 -54 10 -78t39 -24q30 0 40.5 24t10.5 78q0 55 -10 78.5t-41 23.5q-29 0 -39 -23.5t-10 -78.5z" />
<glyph unicode="(" d="M129 154v292q61 9 76 9q67 0 96 -37.5t29 -116.5t-29.5 -115t-97.5 -36q-47 0 -74 4zM158 780q0 53 33.5 91t93.5 38q39 0 78 -21t69.5 -55t58.5 -74.5t48 -81.5t35 -75t22 -55l8 -21q-117 148 -319 148q-49 0 -88 30t-39 76zM188 201q4 -2 19 -2q37 0 50 25t13 77 q0 54 -13 78t-50 24q-13 0 -19 -2v-200zM377 154v297h155v-52h-96v-69h82v-49h-82v-78h96v-49h-155zM437 1128.5q-7 46.5 24 83.5q23 23 53 34t65 3.5t64 -35.5q38 -37 48.5 -102t-2.5 -131t-31.5 -126.5t-35.5 -98.5l-18 -39q20 191 -125 330q-35 35 -42 81.5zM571 154 q3 156 15 297h80l39 -164l38 164h82q3 -45 13 -297h-60q0 108 -6 213l-41 -168h-55l-41 168h-2q-4 -140 -4 -213h-58zM647 633q3 8 9 22t25 53.5t39 75.5t50 80.5t59.5 76t66 53.5t71.5 22q49 0 79.5 -24.5t39 -51t8.5 -53.5q0 -43 -34.5 -72.5t-72.5 -34.5 q-213 -23 -340 -147zM879 301q0 81 24 117.5t84 36.5t85.5 -37t25.5 -117q0 -79 -25.5 -115t-85.5 -36t-84 35.5t-24 115.5zM938 301q0 -54 10 -78t39 -24q30 0 40.5 24t10.5 78q0 55 -10 78.5t-41 23.5q-29 0 -39 -23.5t-10 -78.5z" />
<glyph unicode=")" d="M129 154v292q61 9 76 9q67 0 96 -37.5t29 -116.5t-29.5 -115t-97.5 -36q-47 0 -74 4zM158 780q0 53 33.5 91t93.5 38q39 0 78 -21t69.5 -55t58.5 -74.5t48 -81.5t35 -75t22 -55l8 -21q-117 148 -319 148q-49 0 -88 30t-39 76zM188 201q4 -2 19 -2q37 0 50 25t13 77 q0 54 -13 78t-50 24q-13 0 -19 -2v-200zM377 154v297h155v-52h-96v-69h82v-49h-82v-78h96v-49h-155zM437 1128.5q-7 46.5 24 83.5q23 23 53 34t65 3.5t64 -35.5q38 -37 48.5 -102t-2.5 -131t-31.5 -126.5t-35.5 -98.5l-18 -39q20 191 -125 330q-35 35 -42 81.5zM571 154 q3 156 15 297h80l39 -164l38 164h82q3 -45 13 -297h-60q0 108 -6 213l-41 -168h-55l-41 168h-2q-4 -140 -4 -213h-58zM647 633q3 8 9 22t25 53.5t39 75.5t50 80.5t59.5 76t66 53.5t71.5 22q49 0 79.5 -24.5t39 -51t8.5 -53.5q0 -43 -34.5 -72.5t-72.5 -34.5 q-213 -23 -340 -147zM879 301q0 81 24 117.5t84 36.5t85.5 -37t25.5 -117q0 -79 -25.5 -115t-85.5 -36t-84 35.5t-24 115.5zM938 301q0 -54 10 -78t39 -24q30 0 40.5 24t10.5 78q0 55 -10 78.5t-41 23.5q-29 0 -39 -23.5t-10 -78.5z" />
<glyph unicode="*" d="M129 154v292q61 9 76 9q67 0 96 -37.5t29 -116.5t-29.5 -115t-97.5 -36q-47 0 -74 4zM158 780q0 53 33.5 91t93.5 38q39 0 78 -21t69.5 -55t58.5 -74.5t48 -81.5t35 -75t22 -55l8 -21q-117 148 -319 148q-49 0 -88 30t-39 76zM188 201q4 -2 19 -2q37 0 50 25t13 77 q0 54 -13 78t-50 24q-13 0 -19 -2v-200zM377 154v297h155v-52h-96v-69h82v-49h-82v-78h96v-49h-155zM437 1128.5q-7 46.5 24 83.5q23 23 53 34t65 3.5t64 -35.5q38 -37 48.5 -102t-2.5 -131t-31.5 -126.5t-35.5 -98.5l-18 -39q20 191 -125 330q-35 35 -42 81.5zM571 154 q3 156 15 297h80l39 -164l38 164h82q3 -45 13 -297h-60q0 108 -6 213l-41 -168h-55l-41 168h-2q-4 -140 -4 -213h-58zM647 633q3 8 9 22t25 53.5t39 75.5t50 80.5t59.5 76t66 53.5t71.5 22q49 0 79.5 -24.5t39 -51t8.5 -53.5q0 -43 -34.5 -72.5t-72.5 -34.5 q-213 -23 -340 -147zM879 301q0 81 24 117.5t84 36.5t85.5 -37t25.5 -117q0 -79 -25.5 -115t-85.5 -36t-84 35.5t-24 115.5zM938 301q0 -54 10 -78t39 -24q30 0 40.5 24t10.5 78q0 55 -10 78.5t-41 23.5q-29 0 -39 -23.5t-10 -78.5z" />
<glyph unicode="+" d="M129 154v292q61 9 76 9q67 0 96 -37.5t29 -116.5t-29.5 -115t-97.5 -36q-47 0 -74 4zM158 780q0 53 33.5 91t93.5 38q39 0 78 -21t69.5 -55t58.5 -74.5t48 -81.5t35 -75t22 -55l8 -21q-117 148 -319 148q-49 0 -88 30t-39 76zM188 201q4 -2 19 -2q37 0 50 25t13 77 q0 54 -13 78t-50 24q-13 0 -19 -2v-200zM377 154v297h155v-52h-96v-69h82v-49h-82v-78h96v-49h-155zM437 1128.5q-7 46.5 24 83.5q23 23 53 34t65 3.5t64 -35.5q38 -37 48.5 -102t-2.5 -131t-31.5 -126.5t-35.5 -98.5l-18 -39q20 191 -125 330q-35 35 -42 81.5zM571 154 q3 156 15 297h80l39 -164l38 164h82q3 -45 13 -297h-60q0 108 -6 213l-41 -168h-55l-41 168h-2q-4 -140 -4 -213h-58zM647 633q3 8 9 22t25 53.5t39 75.5t50 80.5t59.5 76t66 53.5t71.5 22q49 0 79.5 -24.5t39 -51t8.5 -53.5q0 -43 -34.5 -72.5t-72.5 -34.5 q-213 -23 -340 -147zM879 301q0 81 24 117.5t84 36.5t85.5 -37t25.5 -117q0 -79 -25.5 -115t-85.5 -36t-84 35.5t-24 115.5zM938 301q0 -54 10 -78t39 -24q30 0 40.5 24t10.5 78q0 55 -10 78.5t-41 23.5q-29 0 -39 -23.5t-10 -78.5z" />
<glyph unicode="," horiz-adv-x="477" d="M125 -236q142 74 145 240q-18 -12 -43 -12q-35 0 -60.5 25.5t-25.5 60.5q0 41 27.5 67.5t67.5 26.5q52 0 81 -39.5t27 -101.5q-1 -95 -60.5 -171.5t-152.5 -109.5z" />
<glyph unicode="-" d="M129 154v292q61 9 76 9q67 0 96 -37.5t29 -116.5t-29.5 -115t-97.5 -36q-47 0 -74 4zM158 780q0 53 33.5 91t93.5 38q39 0 78 -21t69.5 -55t58.5 -74.5t48 -81.5t35 -75t22 -55l8 -21q-117 148 -319 148q-49 0 -88 30t-39 76zM188 201q4 -2 19 -2q37 0 50 25t13 77 q0 54 -13 78t-50 24q-13 0 -19 -2v-200zM377 154v297h155v-52h-96v-69h82v-49h-82v-78h96v-49h-155zM437 1128.5q-7 46.5 24 83.5q23 23 53 34t65 3.5t64 -35.5q38 -37 48.5 -102t-2.5 -131t-31.5 -126.5t-35.5 -98.5l-18 -39q20 191 -125 330q-35 35 -42 81.5zM571 154 q3 156 15 297h80l39 -164l38 164h82q3 -45 13 -297h-60q0 108 -6 213l-41 -168h-55l-41 168h-2q-4 -140 -4 -213h-58zM647 633q3 8 9 22t25 53.5t39 75.5t50 80.5t59.5 76t66 53.5t71.5 22q49 0 79.5 -24.5t39 -51t8.5 -53.5q0 -43 -34.5 -72.5t-72.5 -34.5 q-213 -23 -340 -147zM879 301q0 81 24 117.5t84 36.5t85.5 -37t25.5 -117q0 -79 -25.5 -115t-85.5 -36t-84 35.5t-24 115.5zM938 301q0 -54 10 -78t39 -24q30 0 40.5 24t10.5 78q0 55 -10 78.5t-41 23.5q-29 0 -39 -23.5t-10 -78.5z" />
<glyph unicode="." horiz-adv-x="448" d="M133 80q0 38 27.5 66t64.5 28t63.5 -28t26.5 -66t-26.5 -66t-63.5 -28t-64.5 28t-27.5 66z" />
<glyph unicode="/" d="M129 154v292q61 9 76 9q67 0 96 -37.5t29 -116.5t-29.5 -115t-97.5 -36q-47 0 -74 4zM158 780q0 53 33.5 91t93.5 38q39 0 78 -21t69.5 -55t58.5 -74.5t48 -81.5t35 -75t22 -55l8 -21q-117 148 -319 148q-49 0 -88 30t-39 76zM188 201q4 -2 19 -2q37 0 50 25t13 77 q0 54 -13 78t-50 24q-13 0 -19 -2v-200zM377 154v297h155v-52h-96v-69h82v-49h-82v-78h96v-49h-155zM437 1128.5q-7 46.5 24 83.5q23 23 53 34t65 3.5t64 -35.5q38 -37 48.5 -102t-2.5 -131t-31.5 -126.5t-35.5 -98.5l-18 -39q20 191 -125 330q-35 35 -42 81.5zM571 154 q3 156 15 297h80l39 -164l38 164h82q3 -45 13 -297h-60q0 108 -6 213l-41 -168h-55l-41 168h-2q-4 -140 -4 -213h-58zM647 633q3 8 9 22t25 53.5t39 75.5t50 80.5t59.5 76t66 53.5t71.5 22q49 0 79.5 -24.5t39 -51t8.5 -53.5q0 -43 -34.5 -72.5t-72.5 -34.5 q-213 -23 -340 -147zM879 301q0 81 24 117.5t84 36.5t85.5 -37t25.5 -117q0 -79 -25.5 -115t-85.5 -36t-84 35.5t-24 115.5zM938 301q0 -54 10 -78t39 -24q30 0 40.5 24t10.5 78q0 55 -10 78.5t-41 23.5q-29 0 -39 -23.5t-10 -78.5z" />
<glyph unicode="0" horiz-adv-x="1384" d="M82 719q0 159 48.5 296.5t130 231.5t190.5 147.5t229 53.5q90 0 178.5 -29t169 -90t141.5 -146.5t97.5 -208t36.5 -265.5q0 -159 -48.5 -296.5t-130 -231.5t-190.5 -147.5t-229 -53.5q-90 0 -178.5 29t-169 90t-141.5 146.5t-97.5 208t-36.5 265.5zM199 842 q-1 -158 40 -307.5t114 -263.5t181 -183.5t230 -69.5q105 0 186.5 43.5t132 122t76 179.5t27.5 223q2 212 -68 400t-199.5 305.5t-287.5 117.5q-109 0 -192.5 -43.5t-134.5 -121.5t-77 -179t-28 -223z" />
<glyph unicode="1" horiz-adv-x="579" d="M61 1231l283 213h16v-1184q0 -93 11 -142.5t30.5 -68t57.5 -26.5v-23h-312v23q38 8 57.5 26.5t30.5 68t11 142.5v1032l-180 -75z" />
<glyph unicode="2" horiz-adv-x="997" d="M20 0v29q36 35 111.5 105.5t124 116t121 119.5t120 131t101.5 133.5t85.5 144t53 146t21.5 154.5t-25 134.5t-66.5 91.5t-90 49t-101.5 16q-86 0 -171.5 -39t-147.5 -110l-15 18q180 209 412 209q138 0 233.5 -86.5t96.5 -231.5q0 -75 -23 -155.5t-57.5 -149t-92.5 -147 t-107.5 -135.5t-124 -130.5t-120.5 -115t-118.5 -105.5t-98.5 -88h486q75 0 124 11t79.5 37.5t47 59t31.5 87.5l21 -2l-31 -297h-879z" />
<glyph unicode="3" horiz-adv-x="974" d="M88 -254q293 148 474 356t181 416q0 71 -17.5 125.5t-44.5 86t-65 51t-73.5 26t-75.5 6.5q-77 0 -148 -33l-8 19q164 72 241 157.5t77 204.5q0 99 -63 156t-167 57q-154 0 -286 -123l-17 17q174 180 375 180q127 0 203 -72t76 -172q0 -52 -16.5 -97.5t-42.5 -80.5 t-70.5 -70t-87.5 -61.5t-107 -60.5q59 18 115 18q42 0 84 -8.5t87 -30.5t79.5 -54.5t56.5 -86t22 -119.5q0 -124 -59.5 -242t-170 -222t-241 -191.5t-299.5 -176.5z" />
<glyph unicode="4" d="M129 154v292q61 9 76 9q67 0 96 -37.5t29 -116.5t-29.5 -115t-97.5 -36q-47 0 -74 4zM158 780q0 53 33.5 91t93.5 38q39 0 78 -21t69.5 -55t58.5 -74.5t48 -81.5t35 -75t22 -55l8 -21q-117 148 -319 148q-49 0 -88 30t-39 76zM188 201q4 -2 19 -2q37 0 50 25t13 77 q0 54 -13 78t-50 24q-13 0 -19 -2v-200zM377 154v297h155v-52h-96v-69h82v-49h-82v-78h96v-49h-155zM437 1128.5q-7 46.5 24 83.5q23 23 53 34t65 3.5t64 -35.5q38 -37 48.5 -102t-2.5 -131t-31.5 -126.5t-35.5 -98.5l-18 -39q20 191 -125 330q-35 35 -42 81.5zM571 154 q3 156 15 297h80l39 -164l38 164h82q3 -45 13 -297h-60q0 108 -6 213l-41 -168h-55l-41 168h-2q-4 -140 -4 -213h-58zM647 633q3 8 9 22t25 53.5t39 75.5t50 80.5t59.5 76t66 53.5t71.5 22q49 0 79.5 -24.5t39 -51t8.5 -53.5q0 -43 -34.5 -72.5t-72.5 -34.5 q-213 -23 -340 -147zM879 301q0 81 24 117.5t84 36.5t85.5 -37t25.5 -117q0 -79 -25.5 -115t-85.5 -36t-84 35.5t-24 115.5zM938 301q0 -54 10 -78t39 -24q30 0 40.5 24t10.5 78q0 55 -10 78.5t-41 23.5q-29 0 -39 -23.5t-10 -78.5z" />
<glyph unicode="5" horiz-adv-x="915" d="M41 -260q215 133 363.5 279.5t217 280t68.5 255.5q0 152 -98.5 232t-267.5 75q-35 -1 -73 -5.5t-60.5 -8.5t-53.5 -11t-37 -8l-20 15l82 493l16 97h316q130 0 195 32t93 97l21 -9q-16 -38 -33.5 -66.5t-47.5 -58.5t-67 -49t-93 -31t-126 -12h-250l-65 -411q115 37 258 37 q112 1 199 -30t137.5 -85t76 -119t25.5 -139q0 -209 -193 -423.5t-571 -451.5z" />
<glyph unicode="6" horiz-adv-x="1042" d="M82 535q0 97 24 202.5t79 224t135.5 231.5t202.5 226.5t272 206.5l12 -20q-106 -68 -196 -153.5t-150.5 -169t-108.5 -176t-75 -170t-44 -155.5q70 71 160 110.5t170 39.5q180 0 295 -116.5t115 -321.5q0 -131 -40 -233.5t-105.5 -161.5t-141.5 -89t-156 -30 q-210 0 -329 148.5t-119 406.5zM211 592q0 -116 21.5 -217t65 -182t117 -128t169.5 -47q38 0 75 9.5t76.5 35.5t69 66t48.5 107t19 153q0 201 -108.5 338t-269.5 137q-142 0 -267 -110q-16 -84 -16 -162z" />
<glyph unicode="7" horiz-adv-x="837" d="M0 1137l43 297h803v-17q-143 -251 -263 -525.5t-161 -422.5q-77 -272 -43 -469h-166q0 187 135 483q183 406 422 850l-491 6q-86 1 -134.5 -18.5t-75.5 -60t-57 -125.5z" />
<glyph unicode="8" horiz-adv-x="1056" d="M82 317q0 66 27 132t73.5 123.5t95.5 103.5t107 88q-108 68 -167.5 147.5t-59.5 192.5q0 64 25 124t72 110t123.5 80t170.5 30q153 0 246.5 -83t93.5 -200q0 -192 -266 -393q47 -25 76.5 -41t71 -42t67.5 -47t54.5 -51t44.5 -59.5t27 -66.5t11 -78q0 -174 -136 -290.5 t-360 -116.5q-68 0 -136 21t-127.5 60.5t-96.5 106t-37 149.5zM178 373q0 -69 20.5 -125t55.5 -92.5t75.5 -63t87 -40t84 -19.5t70.5 -6q82 0 153.5 28.5t120 91t48.5 148.5q0 58 -22.5 109.5t-54 87.5t-86.5 74.5t-99 62.5t-112.5 60.5t-108.5 60.5q-100 -73 -166 -173.5 t-66 -203.5zM231 1178q0 -42 11.5 -80.5t28 -68.5t48 -61t57 -51.5t70.5 -48t73 -42.5t79 -42q75 66 130.5 156.5t55.5 194.5q0 49 -16.5 96t-49.5 88.5t-90.5 66.5t-131.5 25q-125 0 -195 -70.5t-70 -162.5z" />
<glyph unicode="9" horiz-adv-x="1042" d="M70 934q0 106 26.5 193.5t70 145.5t101.5 98.5t119.5 58.5t124.5 18q210 0 329.5 -149t119.5 -406q0 -123 -40 -259t-121.5 -281.5t-223.5 -290.5t-328 -261l-12 21q106 68 195.5 153.5t150.5 169t108.5 175.5t74.5 169.5t44 155.5q-69 -71 -159.5 -110t-170.5 -39 q-180 0 -294.5 116.5t-114.5 321.5zM170 1038q0 -201 109 -338t270 -137q140 0 266 111q16 84 16 162q0 117 -21.5 217.5t-65 181.5t-116.5 127.5t-169 46.5q-38 0 -75 -9.5t-77 -35.5t-69.5 -66t-48.5 -107t-19 -153z" />
<glyph unicode=":" horiz-adv-x="354" d="M133 80q0 38 27.5 66t64.5 28t63.5 -28t26.5 -66t-26.5 -66t-63.5 -28t-64.5 28t-27.5 66zM133 756q0 38 27.5 66t64.5 28t63.5 -28t26.5 -66t-26.5 -66t-63.5 -28t-64.5 28t-27.5 66z" />
<glyph unicode=";" horiz-adv-x="354" d="M133 756q0 38 27.5 66t64.5 28t63.5 -28t26.5 -66t-26.5 -66t-63.5 -28t-64.5 28t-27.5 66zM147 -236q143 74 146 240q-18 -12 -43 -12q-35 0 -60.5 25.5t-25.5 60.5q0 41 27 67.5t67 26.5q53 0 82 -39.5t27 -101.5q-1 -95 -60.5 -171.5t-152.5 -109.5z" />
<glyph unicode="&#x3c;" d="M129 154v292q61 9 76 9q67 0 96 -37.5t29 -116.5t-29.5 -115t-97.5 -36q-47 0 -74 4zM158 780q0 53 33.5 91t93.5 38q39 0 78 -21t69.5 -55t58.5 -74.5t48 -81.5t35 -75t22 -55l8 -21q-117 148 -319 148q-49 0 -88 30t-39 76zM188 201q4 -2 19 -2q37 0 50 25t13 77 q0 54 -13 78t-50 24q-13 0 -19 -2v-200zM377 154v297h155v-52h-96v-69h82v-49h-82v-78h96v-49h-155zM437 1128.5q-7 46.5 24 83.5q23 23 53 34t65 3.5t64 -35.5q38 -37 48.5 -102t-2.5 -131t-31.5 -126.5t-35.5 -98.5l-18 -39q20 191 -125 330q-35 35 -42 81.5zM571 154 q3 156 15 297h80l39 -164l38 164h82q3 -45 13 -297h-60q0 108 -6 213l-41 -168h-55l-41 168h-2q-4 -140 -4 -213h-58zM647 633q3 8 9 22t25 53.5t39 75.5t50 80.5t59.5 76t66 53.5t71.5 22q49 0 79.5 -24.5t39 -51t8.5 -53.5q0 -43 -34.5 -72.5t-72.5 -34.5 q-213 -23 -340 -147zM879 301q0 81 24 117.5t84 36.5t85.5 -37t25.5 -117q0 -79 -25.5 -115t-85.5 -36t-84 35.5t-24 115.5zM938 301q0 -54 10 -78t39 -24q30 0 40.5 24t10.5 78q0 55 -10 78.5t-41 23.5q-29 0 -39 -23.5t-10 -78.5z" />
<glyph unicode="=" d="M129 154v292q61 9 76 9q67 0 96 -37.5t29 -116.5t-29.5 -115t-97.5 -36q-47 0 -74 4zM158 780q0 53 33.5 91t93.5 38q39 0 78 -21t69.5 -55t58.5 -74.5t48 -81.5t35 -75t22 -55l8 -21q-117 148 -319 148q-49 0 -88 30t-39 76zM188 201q4 -2 19 -2q37 0 50 25t13 77 q0 54 -13 78t-50 24q-13 0 -19 -2v-200zM377 154v297h155v-52h-96v-69h82v-49h-82v-78h96v-49h-155zM437 1128.5q-7 46.5 24 83.5q23 23 53 34t65 3.5t64 -35.5q38 -37 48.5 -102t-2.5 -131t-31.5 -126.5t-35.5 -98.5l-18 -39q20 191 -125 330q-35 35 -42 81.5zM571 154 q3 156 15 297h80l39 -164l38 164h82q3 -45 13 -297h-60q0 108 -6 213l-41 -168h-55l-41 168h-2q-4 -140 -4 -213h-58zM647 633q3 8 9 22t25 53.5t39 75.5t50 80.5t59.5 76t66 53.5t71.5 22q49 0 79.5 -24.5t39 -51t8.5 -53.5q0 -43 -34.5 -72.5t-72.5 -34.5 q-213 -23 -340 -147zM879 301q0 81 24 117.5t84 36.5t85.5 -37t25.5 -117q0 -79 -25.5 -115t-85.5 -36t-84 35.5t-24 115.5zM938 301q0 -54 10 -78t39 -24q30 0 40.5 24t10.5 78q0 55 -10 78.5t-41 23.5q-29 0 -39 -23.5t-10 -78.5z" />
<glyph unicode="&#x3e;" d="M129 154v292q61 9 76 9q67 0 96 -37.5t29 -116.5t-29.5 -115t-97.5 -36q-47 0 -74 4zM158 780q0 53 33.5 91t93.5 38q39 0 78 -21t69.5 -55t58.5 -74.5t48 -81.5t35 -75t22 -55l8 -21q-117 148 -319 148q-49 0 -88 30t-39 76zM188 201q4 -2 19 -2q37 0 50 25t13 77 q0 54 -13 78t-50 24q-13 0 -19 -2v-200zM377 154v297h155v-52h-96v-69h82v-49h-82v-78h96v-49h-155zM437 1128.5q-7 46.5 24 83.5q23 23 53 34t65 3.5t64 -35.5q38 -37 48.5 -102t-2.5 -131t-31.5 -126.5t-35.5 -98.5l-18 -39q20 191 -125 330q-35 35 -42 81.5zM571 154 q3 156 15 297h80l39 -164l38 164h82q3 -45 13 -297h-60q0 108 -6 213l-41 -168h-55l-41 168h-2q-4 -140 -4 -213h-58zM647 633q3 8 9 22t25 53.5t39 75.5t50 80.5t59.5 76t66 53.5t71.5 22q49 0 79.5 -24.5t39 -51t8.5 -53.5q0 -43 -34.5 -72.5t-72.5 -34.5 q-213 -23 -340 -147zM879 301q0 81 24 117.5t84 36.5t85.5 -37t25.5 -117q0 -79 -25.5 -115t-85.5 -36t-84 35.5t-24 115.5zM938 301q0 -54 10 -78t39 -24q30 0 40.5 24t10.5 78q0 55 -10 78.5t-41 23.5q-29 0 -39 -23.5t-10 -78.5z" />
<glyph unicode="?" horiz-adv-x="808" d="M20 1155q55 133 162.5 213t253.5 80q129 0 220.5 -79t91.5 -212q0 -230 -334 -424l12 -350l-90 -72l-12 6l-2 392q315 159 315 409q0 61 -17.5 108t-44 75.5t-62 47t-68.5 25t-66 6.5q-110 0 -200.5 -61.5t-135.5 -173.5zM283 80q0 38 27.5 66t64.5 28t63.5 -28t26.5 -66 t-26.5 -66t-63.5 -28t-64.5 28t-27.5 66z" />
<glyph unicode="@" d="M129 154v292q61 9 76 9q67 0 96 -37.5t29 -116.5t-29.5 -115t-97.5 -36q-47 0 -74 4zM158 780q0 53 33.5 91t93.5 38q39 0 78 -21t69.5 -55t58.5 -74.5t48 -81.5t35 -75t22 -55l8 -21q-117 148 -319 148q-49 0 -88 30t-39 76zM188 201q4 -2 19 -2q37 0 50 25t13 77 q0 54 -13 78t-50 24q-13 0 -19 -2v-200zM377 154v297h155v-52h-96v-69h82v-49h-82v-78h96v-49h-155zM437 1128.5q-7 46.5 24 83.5q23 23 53 34t65 3.5t64 -35.5q38 -37 48.5 -102t-2.5 -131t-31.5 -126.5t-35.5 -98.5l-18 -39q20 191 -125 330q-35 35 -42 81.5zM571 154 q3 156 15 297h80l39 -164l38 164h82q3 -45 13 -297h-60q0 108 -6 213l-41 -168h-55l-41 168h-2q-4 -140 -4 -213h-58zM647 633q3 8 9 22t25 53.5t39 75.5t50 80.5t59.5 76t66 53.5t71.5 22q49 0 79.5 -24.5t39 -51t8.5 -53.5q0 -43 -34.5 -72.5t-72.5 -34.5 q-213 -23 -340 -147zM879 301q0 81 24 117.5t84 36.5t85.5 -37t25.5 -117q0 -79 -25.5 -115t-85.5 -36t-84 35.5t-24 115.5zM938 301q0 -54 10 -78t39 -24q30 0 40.5 24t10.5 78q0 55 -10 78.5t-41 23.5q-29 0 -39 -23.5t-10 -78.5z" />
<glyph unicode="A" horiz-adv-x="1306" d="M-25 0v23q30 8 52 23.5t54 64t66 131.5l426 1052q7 18 7 36q0 23 -11 46l-12 27l105 45l497 -1208q34 -82 64 -130t49 -63.5t43 -23.5v-23h-258v23q23 6 32 15t7 34t-14.5 62t-41.5 106l-127 307h-610l-123 -305q-37 -89 -37 -142q0 -66 56 -77v-23h-224zM315 575h586 l-297 719z" />
<glyph unicode="B" horiz-adv-x="1210" d="M113 0v23q31 8 47.5 26.5t25.5 68.5t9 142v914q0 92 -9 142t-25.5 68.5t-47.5 26.5v23h450q214 0 322 -71.5t108 -199.5q0 -110 -75.5 -194t-223.5 -113q120 -8 209 -43t141 -90t77 -120t26 -142v-7q0 -66 -18 -126q-19 -64 -67 -124t-120 -105t-185 -72t-255 -27h-389z M309 207q0 -110 20.5 -144t86.5 -34h104q138 0 236.5 29t155.5 84.5t82.5 127t25.5 164.5q0 87 -25 157t-76 124.5t-135.5 84t-197.5 29.5h-277v-622zM309 856h201q184 0 270 77t86 204q0 125 -83 197.5t-240 72.5h-234v-551z" />
<glyph unicode="C" horiz-adv-x="1497" d="M102 684q0 226 106 401t289.5 269t413.5 94q132 0 263.5 -36.5t187.5 -68.5l8 -213l-16 -4q-60 128 -194.5 204.5t-336.5 76.5q-123 0 -230 -41t-189.5 -119.5t-131 -203t-49.5 -281.5v-8q0 -109 26 -212q27 -107 83.5 -202.5t136.5 -167.5t193.5 -114t246.5 -42 q168 0 296 80.5t190 245.5l20 -2l-33 -238q-69 -46 -224.5 -84t-303.5 -38q-340 0 -546 191t-206 513z" />
<glyph unicode="D" horiz-adv-x="1470" d="M113 0v23q31 8 47.5 26.5t25.5 68.5t9 142v914q0 92 -9 142t-25.5 68.5t-47.5 26.5v23h467q155 0 285.5 -37t222 -101.5t155 -152.5t94 -189t31.5 -213v-6q0 -153 -52 -286q-52 -136 -147 -235.5t-234.5 -156.5t-305.5 -57h-516zM309 178q0 -79 26.5 -114t106.5 -35h193 q292 0 448 169t156 482q0 119 -31.5 228t-93.5 199.5t-148.5 157.5t-203.5 104.5t-252 37.5h-201v-1229z" />
<glyph unicode="E" horiz-adv-x="1193" d="M113 0v23q31 8 47.5 26.5t25.5 68.5t9 142v914q0 92 -9 142t-25.5 68.5t-47.5 26.5v23h919l25 -244l-19 -4q-46 118 -132.5 169.5t-227.5 51.5h-369v-631h336q103 0 162.5 16t81.5 40.5t31 66.5h22v-272h-22q-9 42 -31 66.5t-81.5 40.5t-162.5 16h-336v-641q0 -82 82 -82 h342q144 0 228 48t133 173l18 -4l-18 -244h-981z" />
<glyph unicode="F" horiz-adv-x="1140" d="M113 0v23q31 8 47.5 26.5t25.5 68.5t9 142v914q0 92 -9 142t-25.5 68.5t-47.5 26.5v23h940l20 -203l-18 -4q-46 100 -117 140t-207 40h-422v-608l330 -2h12q94 1 150 15q59 16 81 40t31 66h23v-273h-23q-9 42 -31 66.5t-81 41t-162 17.5l-330 2v-512q0 -92 9 -142 t25.5 -68.5t47.5 -26.5v-23h-278z" />
<glyph unicode="G" horiz-adv-x="1492" d="M102 690q0 213 92.5 386.5t257.5 272.5t369 99q159 0 286 -38t185 -75l8 -211l-16 -4q-27 56 -69.5 105.5t-103.5 93t-146.5 69t-184.5 25.5q-248 0 -406 -163.5t-161 -446.5v-8q0 -113 27 -223q29 -114 87 -215t138.5 -178t192 -122t237.5 -45t234 65t149 148l-4 236 q-2 73 -21.5 104.5t-83.5 44.5v23h215v-393q-64 -104 -217.5 -182t-328.5 -78q-334 0 -535 193.5t-201 516.5z" />
<glyph unicode="H" horiz-adv-x="1470" d="M113 0v23q31 8 47.5 26.5t25.5 68.5t9 142v914q0 92 -9 142t-25.5 68.5t-47.5 26.5v23h278v-23q-31 -8 -47.5 -26.5t-25.5 -68.5t-9 -142v-400h852v400q0 92 -9 142t-25.5 68.5t-47.5 26.5v23h279v-23q-31 -8 -47.5 -26.5t-25.5 -68.5t-9 -142v-914q0 -92 9 -142 t25.5 -68.5t47.5 -26.5v-23h-279v23q31 8 47.5 26.5t25.5 68.5t9 142v485h-852v-485q0 -92 9 -142t25.5 -68.5t47.5 -26.5v-23h-278z" />
<glyph unicode="I" horiz-adv-x="503" d="M113 0v23q31 8 47.5 26.5t25.5 68.5t9 142v914q0 92 -9 142t-25.5 68.5t-47.5 26.5v23h278v-23q-31 -8 -47.5 -26.5t-25.5 -68.5t-9 -142v-914q0 -92 9 -142t25.5 -68.5t47.5 -26.5v-23h-278z" />
<glyph unicode="J" horiz-adv-x="546" d="M-164 -213q0 30 27.5 54t70.5 24q40 0 179 -21q26 15 45.5 33t39.5 52t31 91t11 134v1020q0 92 -9 142t-25.5 68.5t-47.5 26.5v23h276v-23q-31 -8 -47.5 -26.5t-25.5 -68.5t-9 -142v-877q0 -128 -37.5 -233t-101 -171.5t-143.5 -102.5t-168 -36q-36 0 -51 6.5t-15 26.5z " />
<glyph unicode="K" horiz-adv-x="1300" d="M113 0v23q31 8 47.5 26.5t25.5 68.5t9 142v914q0 92 -9 142t-25.5 68.5t-47.5 26.5v23h278v-23q-31 -8 -47.5 -26.5t-25.5 -68.5t-9 -142v-564l578 592q127 129 127 182q0 29 -37 35v15h246v-23q-31 -9 -45 -14t-49.5 -21.5t-75 -48.5t-86.5 -80l-437 -448l41 4 q32 4 62 5q19 0 36 -2q45 -4 79 -11t64 -26.5t52.5 -41.5t45.5 -58.5t43 -77t43.5 -97t48.5 -117.5q12 -29 18 -45q64 -159 114.5 -232t98.5 -73q17 0 41 4v-23q-47 -14 -107 -14q-27 0 -50.5 9t-41 19.5t-37.5 37.5t-31 43.5t-30.5 59.5t-28 62.5t-30.5 73.5 q-95 231 -124 288q-62 119 -136 158q-54 28 -133 28q-12 0 -25 -1l-41 -2l-193 -197v-313q0 -92 9 -142t25.5 -68.5t47.5 -26.5v-23h-278z" />
<glyph unicode="L" horiz-adv-x="1099" d="M113 0v23q31 8 47.5 26.5t25.5 68.5t9 142v914q0 92 -9 142t-25.5 68.5t-47.5 26.5v23h278v-23q-31 -8 -47.5 -26.5t-25.5 -68.5t-9 -142v-1065q0 -82 82 -82h328q135 0 201.5 39.5t113.5 140.5l19 -4l-13 -203h-927z" />
<glyph unicode="M" horiz-adv-x="1691" d="M92 1411v23h182l568 -928l512 833l2 4l55 91h168v-23q-38 -9 -60 -30.5t-36.5 -81.5t-14.5 -162v-877q0 -92 9 -142t25.5 -68.5t47.5 -26.5v-23h-278v23q31 8 47.5 26.5t25.5 68.5t9 142v1022l-549 -893h-29l-536 881v-973q0 -103 15.5 -162t40 -81t66.5 -31v-23h-241v23 q31 8 47.5 26.5t25.5 68.5t9 142v877q0 102 -14.5 162t-36.5 81.5t-60 30.5z" />
<glyph unicode="N" horiz-adv-x="1396" d="M92 1411v23h170l930 -1248v951q0 103 -16 162t-40.5 81t-66.5 31v23h236v-23q-31 -8 -47.5 -26.5t-25.5 -68.5t-9 -142v-1190h-27l-967 1300v-987q0 -103 16 -162t40.5 -81t66.5 -31v-23h-235v23q31 8 47.5 26.5t25.5 68.5t9 142v914q0 134 -23.5 180t-83.5 57z" />
<glyph unicode="O" horiz-adv-x="1648" d="M102 715q0 215 89.5 382t254.5 260t379 93q106 0 208 -28t195 -88t163.5 -145.5t112.5 -208.5t42 -269q0 -149 -42 -273t-112.5 -207t-164.5 -141t-195 -84t-207 -26q-107 0 -209 27.5t-195.5 87t-164 144t-112.5 207.5t-42 269zM213 825q0 -154 50.5 -300.5 t137.5 -258.5t212.5 -180t265.5 -68q256 0 407.5 161.5t151.5 424.5q0 208 -87 393t-243 299.5t-342 114.5q-169 0 -295.5 -76t-192 -208.5t-65.5 -301.5z" />
<glyph unicode="P" horiz-adv-x="1116" d="M113 0v23q31 8 47.5 26.5t25.5 68.5t9 142v914q0 92 -9 142t-25.5 68.5t-47.5 26.5v23h399q139 0 245.5 -31t171.5 -87t97.5 -129.5t32.5 -162.5q0 -215 -148 -333t-405 -118h-197v-313q0 -92 9 -142t25.5 -68.5t47.5 -26.5v-23h-278zM309 602h197q198 0 312 97.5 t114 283.5q0 202 -131 312t-381 110q-37 0 -111 -4v-799z" />
<glyph unicode="Q" horiz-adv-x="1648" d="M102 715q0 215 89.5 382t254.5 260t379 93q106 0 208 -28t195 -88t163.5 -145.5t112.5 -208.5t42 -269q0 -156 -45.5 -284.5t-124.5 -214t-176.5 -139.5t-210.5 -77q147 -108 266 -168.5t230 -60.5q65 0 113.5 22t93.5 70l14 -13q-161 -174 -274 -174q-49 0 -106.5 24 t-104 56t-100 80t-84 79.5t-66.5 69.5q-7 8 -10 11q-67 -12 -136 -12q-107 0 -209 27.5t-195.5 87t-164 144t-112.5 207.5t-42 269zM213 825q0 -154 50.5 -300.5t137.5 -258.5t212.5 -180t265.5 -68q256 0 407.5 161.5t151.5 424.5q0 208 -87 393t-243 299.5t-342 114.5 q-169 0 -295.5 -76t-192 -208.5t-65.5 -301.5z" />
<glyph unicode="R" horiz-adv-x="1239" d="M113 0v23q31 8 47.5 26.5t25.5 68.5t9 142v914q0 92 -9 142t-25.5 68.5t-47.5 26.5v23h376q279 0 408 -79t129 -233q0 -150 -109 -251t-303 -121q41 -6 76 -16t62 -20.5t52 -30t42 -33.5t36 -42.5t29.5 -45t27 -53.5t23.5 -55.5t24.5 -63.5t25.5 -66 q65 -165 113.5 -236.5t97.5 -71.5q10 0 34 4v-20q-33 -14 -100 -14q-31 0 -55.5 6.5t-45 23t-34 31.5t-30 47.5t-26 54.5t-28.5 68t-31 74q-14 32 -32 76.5t-29.5 72.5t-28 65t-29.5 60.5t-33 51t-40 45t-47.5 35t-58.5 27t-71 15.5t-87 6h-142v-485q0 -92 9 -142 t25.5 -68.5t47.5 -26.5v-23h-278zM309 774h217q178 0 275.5 79t97.5 224q0 330 -487 330q-29 0 -103 -4v-629z" />
<glyph unicode="S" horiz-adv-x="1122" d="M92 387l21 2q29 -81 66 -143.5t94.5 -118.5t143 -86.5t193.5 -30.5q141 0 239.5 82.5t98.5 204.5q0 43 -14.5 83t-35.5 70.5t-58 60.5t-68 50t-80.5 43.5t-80 36.5t-81.5 33q-217 86 -310 174t-93 229q0 168 129.5 269.5t339.5 101.5q247 0 405 -102l9 -207l-17 -4 q-23 47 -47 84t-62.5 75.5t-84 64t-111.5 42t-145 16.5q-135 0 -228.5 -74.5t-93.5 -209.5q0 -47 15 -88.5t45.5 -74.5t64 -59.5t82.5 -52t88 -42.5t94 -40l15 -6q70 -29 117 -50.5t100 -50.5t86.5 -58.5t62.5 -66.5t42.5 -81.5t13.5 -97.5q0 -111 -64 -200t-170 -137 t-231 -48q-148 0 -271.5 44t-204.5 101z" />
<glyph unicode="T" horiz-adv-x="1144" d="M39 1231l12 203h1039l12 -203l-19 -4q-47 101 -113.5 140.5t-201.5 39.5h-137v-1147q0 -92 9 -142t25.5 -68.5t47.5 -26.5v-23h-281v23q31 8 47.5 26.5t25.5 68.5t9 142v1147h-141q-135 0 -202 -39.5t-114 -140.5z" />
<glyph unicode="U" horiz-adv-x="1372" d="M82 1411v23h278v-23q-31 -8 -47 -26.5t-25 -68t-9 -142.5v-633q0 -113 27 -203.5t73 -150t109.5 -99.5t132.5 -57t147 -17q58 0 114 13.5t114.5 50t102 92.5t71.5 148.5t28 209.5v609q0 103 -16 162t-40.5 81t-66.5 31v23h236v-23q-31 -8 -47.5 -26.5t-25.5 -68.5 t-9 -142v-637q0 -120 -27 -215.5t-73.5 -158.5t-112 -105t-138.5 -60t-157 -18q-90 0 -169.5 17t-151.5 56t-123.5 97.5t-82 147t-30.5 198.5v678q0 92 -9 142t-25.5 68.5t-47.5 26.5z" />
<glyph unicode="V" horiz-adv-x="1273" d="M-8 1411v23h258v-23q-23 -6 -32.5 -15.5t-8 -34.5t13.5 -62.5t39 -106.5l420 -1071l410 1069q34 87 34 141q0 7 -1 13q-5 56 -58 67v23h223v-23q-46 -13 -84 -57t-84 -164l-465 -1210h-36l-478 1212q-46 119 -80 162.5t-71 56.5z" />
<glyph unicode="W" horiz-adv-x="1798" d="M-29 1411v23h258v-23q-30 -7 -37.5 -25.5t3 -61.5t45.5 -134l397 -1049l254 627l-176 426q-34 82 -64 130t-49 63.5t-43 23.5v23h252v-23q-23 -6 -32 -15t-7.5 -34t15 -62.5t42.5 -105.5l125 -301l107 295q33 91 33 145q0 67 -50 78v23h211v-23q-45 -12 -81.5 -56 t-79.5 -165l-121 -338l293 -705l374 1043q31 84 31 137q0 73 -59 84v23h223v-23q-45 -12 -82 -56.5t-80 -164.5l-428 -1190h-37l-301 729l-297 -729h-37l-452 1190q-46 120 -79.5 164t-70.5 57z" />
<glyph unicode="X" horiz-adv-x="1175" d="M12 0v23q32 11 52.5 23.5t58 54t86.5 116.5l344 516l-289 477q-46 76 -81 120t-52.5 57t-42.5 24v23h246v-23q-34 -8 -34 -30q0 -27 64 -132q9 -16 23 -39l236 -391l266 398q30 46 46.5 78t22 57t-5 39.5t-37.5 19.5v23h203v-23q-32 -11 -52.5 -23.5t-57 -54 t-86.5 -116.5l-283 -424l344 -570q46 -76 81 -119.5t52 -56.5t43 -24v-23h-246v23q34 8 34 29q0 26 -62 129l-25 42l-291 484l-327 -490q-30 -47 -46.5 -78.5t-22 -57t4.5 -39.5t37 -19v-23h-203z" />
<glyph unicode="Y" horiz-adv-x="1095" d="M-20 1411v23h260v-23q-22 -6 -30.5 -14t-2 -33t23 -57.5t54.5 -100.5l297 -528l299 528q27 48 41.5 82.5t17.5 60.5t-8.5 41.5t-38.5 20.5v23h223v-23q-23 -6 -41 -15.5t-43.5 -30t-54.5 -60.5t-62 -99l-319 -567v-379q0 -92 9 -142t25.5 -68.5t47.5 -26.5v-23h-281v23 q31 8 47.5 26.5t25.5 68.5t9 142l-2 375l-315 571q-32 59 -60 99t-50.5 60.5t-37.5 30t-34 15.5z" />
<glyph unicode="Z" horiz-adv-x="1091" d="M53 0v20l858 1387h-444q-102 0 -169 -25.5t-107 -72t-76 -129.5h-17l25 254h913v-21l-860 -1386h418q92 0 155.5 10.5t106.5 27.5t75.5 54t53 75t47.5 105l17 -2l-37 -297h-959z" />
<glyph unicode="[" d="M129 154v292q61 9 76 9q67 0 96 -37.5t29 -116.5t-29.5 -115t-97.5 -36q-47 0 -74 4zM158 780q0 53 33.5 91t93.5 38q39 0 78 -21t69.5 -55t58.5 -74.5t48 -81.5t35 -75t22 -55l8 -21q-117 148 -319 148q-49 0 -88 30t-39 76zM188 201q4 -2 19 -2q37 0 50 25t13 77 q0 54 -13 78t-50 24q-13 0 -19 -2v-200zM377 154v297h155v-52h-96v-69h82v-49h-82v-78h96v-49h-155zM437 1128.5q-7 46.5 24 83.5q23 23 53 34t65 3.5t64 -35.5q38 -37 48.5 -102t-2.5 -131t-31.5 -126.5t-35.5 -98.5l-18 -39q20 191 -125 330q-35 35 -42 81.5zM571 154 q3 156 15 297h80l39 -164l38 164h82q3 -45 13 -297h-60q0 108 -6 213l-41 -168h-55l-41 168h-2q-4 -140 -4 -213h-58zM647 633q3 8 9 22t25 53.5t39 75.5t50 80.5t59.5 76t66 53.5t71.5 22q49 0 79.5 -24.5t39 -51t8.5 -53.5q0 -43 -34.5 -72.5t-72.5 -34.5 q-213 -23 -340 -147zM879 301q0 81 24 117.5t84 36.5t85.5 -37t25.5 -117q0 -79 -25.5 -115t-85.5 -36t-84 35.5t-24 115.5zM938 301q0 -54 10 -78t39 -24q30 0 40.5 24t10.5 78q0 55 -10 78.5t-41 23.5q-29 0 -39 -23.5t-10 -78.5z" />
<glyph unicode="\" d="M129 154v292q61 9 76 9q67 0 96 -37.5t29 -116.5t-29.5 -115t-97.5 -36q-47 0 -74 4zM158 780q0 53 33.5 91t93.5 38q39 0 78 -21t69.5 -55t58.5 -74.5t48 -81.5t35 -75t22 -55l8 -21q-117 148 -319 148q-49 0 -88 30t-39 76zM188 201q4 -2 19 -2q37 0 50 25t13 77 q0 54 -13 78t-50 24q-13 0 -19 -2v-200zM377 154v297h155v-52h-96v-69h82v-49h-82v-78h96v-49h-155zM437 1128.5q-7 46.5 24 83.5q23 23 53 34t65 3.5t64 -35.5q38 -37 48.5 -102t-2.5 -131t-31.5 -126.5t-35.5 -98.5l-18 -39q20 191 -125 330q-35 35 -42 81.5zM571 154 q3 156 15 297h80l39 -164l38 164h82q3 -45 13 -297h-60q0 108 -6 213l-41 -168h-55l-41 168h-2q-4 -140 -4 -213h-58zM647 633q3 8 9 22t25 53.5t39 75.5t50 80.5t59.5 76t66 53.5t71.5 22q49 0 79.5 -24.5t39 -51t8.5 -53.5q0 -43 -34.5 -72.5t-72.5 -34.5 q-213 -23 -340 -147zM879 301q0 81 24 117.5t84 36.5t85.5 -37t25.5 -117q0 -79 -25.5 -115t-85.5 -36t-84 35.5t-24 115.5zM938 301q0 -54 10 -78t39 -24q30 0 40.5 24t10.5 78q0 55 -10 78.5t-41 23.5q-29 0 -39 -23.5t-10 -78.5z" />
<glyph unicode="]" d="M129 154v292q61 9 76 9q67 0 96 -37.5t29 -116.5t-29.5 -115t-97.5 -36q-47 0 -74 4zM158 780q0 53 33.5 91t93.5 38q39 0 78 -21t69.5 -55t58.5 -74.5t48 -81.5t35 -75t22 -55l8 -21q-117 148 -319 148q-49 0 -88 30t-39 76zM188 201q4 -2 19 -2q37 0 50 25t13 77 q0 54 -13 78t-50 24q-13 0 -19 -2v-200zM377 154v297h155v-52h-96v-69h82v-49h-82v-78h96v-49h-155zM437 1128.5q-7 46.5 24 83.5q23 23 53 34t65 3.5t64 -35.5q38 -37 48.5 -102t-2.5 -131t-31.5 -126.5t-35.5 -98.5l-18 -39q20 191 -125 330q-35 35 -42 81.5zM571 154 q3 156 15 297h80l39 -164l38 164h82q3 -45 13 -297h-60q0 108 -6 213l-41 -168h-55l-41 168h-2q-4 -140 -4 -213h-58zM647 633q3 8 9 22t25 53.5t39 75.5t50 80.5t59.5 76t66 53.5t71.5 22q49 0 79.5 -24.5t39 -51t8.5 -53.5q0 -43 -34.5 -72.5t-72.5 -34.5 q-213 -23 -340 -147zM879 301q0 81 24 117.5t84 36.5t85.5 -37t25.5 -117q0 -79 -25.5 -115t-85.5 -36t-84 35.5t-24 115.5zM938 301q0 -54 10 -78t39 -24q30 0 40.5 24t10.5 78q0 55 -10 78.5t-41 23.5q-29 0 -39 -23.5t-10 -78.5z" />
<glyph unicode="^" d="M129 154v292q61 9 76 9q67 0 96 -37.5t29 -116.5t-29.5 -115t-97.5 -36q-47 0 -74 4zM158 780q0 53 33.5 91t93.5 38q39 0 78 -21t69.5 -55t58.5 -74.5t48 -81.5t35 -75t22 -55l8 -21q-117 148 -319 148q-49 0 -88 30t-39 76zM188 201q4 -2 19 -2q37 0 50 25t13 77 q0 54 -13 78t-50 24q-13 0 -19 -2v-200zM377 154v297h155v-52h-96v-69h82v-49h-82v-78h96v-49h-155zM437 1128.5q-7 46.5 24 83.5q23 23 53 34t65 3.5t64 -35.5q38 -37 48.5 -102t-2.5 -131t-31.5 -126.5t-35.5 -98.5l-18 -39q20 191 -125 330q-35 35 -42 81.5zM571 154 q3 156 15 297h80l39 -164l38 164h82q3 -45 13 -297h-60q0 108 -6 213l-41 -168h-55l-41 168h-2q-4 -140 -4 -213h-58zM647 633q3 8 9 22t25 53.5t39 75.5t50 80.5t59.5 76t66 53.5t71.5 22q49 0 79.5 -24.5t39 -51t8.5 -53.5q0 -43 -34.5 -72.5t-72.5 -34.5 q-213 -23 -340 -147zM879 301q0 81 24 117.5t84 36.5t85.5 -37t25.5 -117q0 -79 -25.5 -115t-85.5 -36t-84 35.5t-24 115.5zM938 301q0 -54 10 -78t39 -24q30 0 40.5 24t10.5 78q0 55 -10 78.5t-41 23.5q-29 0 -39 -23.5t-10 -78.5z" />
<glyph unicode="_" d="M129 154v292q61 9 76 9q67 0 96 -37.5t29 -116.5t-29.5 -115t-97.5 -36q-47 0 -74 4zM158 780q0 53 33.5 91t93.5 38q39 0 78 -21t69.5 -55t58.5 -74.5t48 -81.5t35 -75t22 -55l8 -21q-117 148 -319 148q-49 0 -88 30t-39 76zM188 201q4 -2 19 -2q37 0 50 25t13 77 q0 54 -13 78t-50 24q-13 0 -19 -2v-200zM377 154v297h155v-52h-96v-69h82v-49h-82v-78h96v-49h-155zM437 1128.5q-7 46.5 24 83.5q23 23 53 34t65 3.5t64 -35.5q38 -37 48.5 -102t-2.5 -131t-31.5 -126.5t-35.5 -98.5l-18 -39q20 191 -125 330q-35 35 -42 81.5zM571 154 q3 156 15 297h80l39 -164l38 164h82q3 -45 13 -297h-60q0 108 -6 213l-41 -168h-55l-41 168h-2q-4 -140 -4 -213h-58zM647 633q3 8 9 22t25 53.5t39 75.5t50 80.5t59.5 76t66 53.5t71.5 22q49 0 79.5 -24.5t39 -51t8.5 -53.5q0 -43 -34.5 -72.5t-72.5 -34.5 q-213 -23 -340 -147zM879 301q0 81 24 117.5t84 36.5t85.5 -37t25.5 -117q0 -79 -25.5 -115t-85.5 -36t-84 35.5t-24 115.5zM938 301q0 -54 10 -78t39 -24q30 0 40.5 24t10.5 78q0 55 -10 78.5t-41 23.5q-29 0 -39 -23.5t-10 -78.5z" />
<glyph unicode="`" d="M129 154v292q61 9 76 9q67 0 96 -37.5t29 -116.5t-29.5 -115t-97.5 -36q-47 0 -74 4zM158 780q0 53 33.5 91t93.5 38q39 0 78 -21t69.5 -55t58.5 -74.5t48 -81.5t35 -75t22 -55l8 -21q-117 148 -319 148q-49 0 -88 30t-39 76zM188 201q4 -2 19 -2q37 0 50 25t13 77 q0 54 -13 78t-50 24q-13 0 -19 -2v-200zM377 154v297h155v-52h-96v-69h82v-49h-82v-78h96v-49h-155zM437 1128.5q-7 46.5 24 83.5q23 23 53 34t65 3.5t64 -35.5q38 -37 48.5 -102t-2.5 -131t-31.5 -126.5t-35.5 -98.5l-18 -39q20 191 -125 330q-35 35 -42 81.5zM571 154 q3 156 15 297h80l39 -164l38 164h82q3 -45 13 -297h-60q0 108 -6 213l-41 -168h-55l-41 168h-2q-4 -140 -4 -213h-58zM647 633q3 8 9 22t25 53.5t39 75.5t50 80.5t59.5 76t66 53.5t71.5 22q49 0 79.5 -24.5t39 -51t8.5 -53.5q0 -43 -34.5 -72.5t-72.5 -34.5 q-213 -23 -340 -147zM879 301q0 81 24 117.5t84 36.5t85.5 -37t25.5 -117q0 -79 -25.5 -115t-85.5 -36t-84 35.5t-24 115.5zM938 301q0 -54 10 -78t39 -24q30 0 40.5 24t10.5 78q0 55 -10 78.5t-41 23.5q-29 0 -39 -23.5t-10 -78.5z" />
<glyph unicode="a" horiz-adv-x="1083" d="M82 248q0 45 13 84t34.5 69.5t56 57t70 46t84.5 38t92.5 31.5t99.5 28l304 80q-18 303 -306 303q-99 0 -191 -49t-165 -143l-18 14q181 231 430 231q180 0 269 -93.5t89 -258.5v-426q0 -92 9 -142t25.5 -68.5t47.5 -26.5v-23h-147q-41 0 -41 41v391q-52 -198 -182.5 -325 t-276.5 -127q-124 0 -210.5 70t-86.5 198zM259 130q62 -60 167 -60q70 0 134.5 30t114 81t86.5 117t56.5 140t20.5 148v45v26l-297 -77q-179 -46 -263 -110q-84 -63 -83 -178q0 -100 64 -162z" />
<glyph unicode="b" horiz-adv-x="1208" d="M72 1559v18l174 76l14 -13v-766q214 164 430 164q86 0 162.5 -34t135.5 -96.5t93.5 -159.5t34.5 -216q0 -99 -32 -194t-92.5 -175t-161 -130t-224.5 -51h-5q-113 0 -219 46q-108 46 -161 105l-47 -133h-20v1346q0 83 -9 125t-23.5 57.5t-49.5 30.5zM260 332 q0 -51 31 -106.5t83 -101.5t126.5 -76t154.5 -30q163 0 263 112.5t100 324.5q0 105 -23.5 198.5t-70 168.5t-123 119t-174.5 44q-189 0 -367 -139v-514z" />
<glyph unicode="c" horiz-adv-x="1087" d="M84 489q0 148 75.5 274.5t205 200.5t282.5 74q128 0 226 -31.5t98 -72.5q0 -27 -34.5 -56.5t-82.5 -29.5q-31 0 -100.5 36t-216.5 124q-156 -32 -252.5 -150t-96.5 -299q0 -221 127.5 -355t331.5 -134q118 0 206.5 49t172.5 145l16 -16q-216 -268 -471 -268 q-69 0 -137 19.5t-131.5 61t-112 100t-77.5 143.5t-29 185z" />
<glyph unicode="d" horiz-adv-x="1193" d="M84 502q0 98 33.5 191t96 170t164 124.5t226.5 48.5h6q98 0 184 -32q88 -33 154 -84v426q0 83 -9 125t-23.5 57.5t-49.5 30.5v18l174 76l15 -13v-1380q0 -92 9 -142t25.5 -68.5t47.5 -26.5v-23h-148q-41 0 -41 41v143q-207 -204 -391 -204q-93 0 -178.5 36.5t-151 102 t-104.5 165t-39 218.5zM186 578q0 -222 116.5 -371.5t305.5 -149.5q172 0 340 158v524q-16 96 -132 180.5t-251 84.5q-164 0 -271.5 -112t-107.5 -314z" />
<glyph unicode="e" horiz-adv-x="1107" d="M84 489q0 237 154.5 393t386.5 156q175 0 283 -98t116 -258h-823q-13 -63 -13 -123q0 -221 127.5 -355t331.5 -134q118 0 206.5 49t172.5 145l16 -16q-216 -268 -471 -268q-69 0 -137 19.5t-131.5 61t-112 100t-77.5 143.5t-29 185zM205 707h704q-5 33 -20 70t-44.5 78.5 t-68.5 73.5t-97.5 53.5t-125.5 21.5q-131 0 -222.5 -79.5t-125.5 -217.5z" />
<glyph unicode="f" horiz-adv-x="600" d="M51 999l12 25h107q9 154 86.5 284.5t209.5 208.5t290 78q133 0 133 -47q0 -30 -31.5 -66t-81.5 -36q-20 0 -43 3t-39.5 6t-46.5 11.5t-43.5 12.5t-50.5 16t-49 16q-27 -15 -39 -22.5t-41 -29.5t-45 -41.5t-38.5 -54.5t-34.5 -73.5t-21 -93.5t-9 -119v-53h281l-12 -25 h-269v-739q0 -92 9 -142t25.5 -68.5t47.5 -26.5v-23h-270v23q31 8 47.5 26.5t25.5 68.5t9 142v729v10h-119z" />
<glyph unicode="g" horiz-adv-x="1048" d="M29 -309q0 100 73.5 184t214.5 172q-161 34 -161 146q0 16 4 31t14.5 29.5t17.5 24t25 24t24 19.5t28 20t24 17q-172 93 -172 299q0 104 57 193t147.5 138.5t188.5 49.5q76 0 150 -24q14 21 28 35q101 112 250 112q46 0 70 -12t24 -31q0 -27 -31 -53.5t-75 -26.5t-176 35 q-42 -29 -68 -67q97 -38 158 -119.5t61 -204.5q0 -87 -37 -161.5t-95.5 -121t-126 -72.5t-132.5 -26q-108 0 -199 45q-8 -6 -25.5 -18.5t-23.5 -17t-17 -14.5t-14.5 -17t-6.5 -17.5t-3 -21.5q3 -91 234 -103l239 -14q60 -3 97.5 -7t81.5 -12.5t70.5 -22.5t50 -35t34 -53 t10.5 -75q0 -118 -105 -232.5t-261 -183.5t-303 -69q-96 0 -172 27t-124 86.5t-48 144.5zM133 -262q0 -105 83.5 -176.5t242.5 -71.5q116 0 238 53.5t203 141t81 176.5q0 38 -14.5 65t-37.5 43t-64 26.5t-80 15t-99 7.5l-242 15q-65 4 -94 10q-217 -134 -217 -305zM227 723 q0 -97 40.5 -186.5t115.5 -147t166 -57.5q119 0 185.5 79.5t66.5 202.5q0 94 -39.5 184.5t-114 151t-164.5 60.5q-122 0 -189 -79.5t-67 -207.5z" />
<glyph unicode="h" horiz-adv-x="1179" d="M72 0v23q31 8 47.5 26.5t25.5 68.5t9 142v1086q0 83 -9 125t-23.5 57.5t-49.5 30.5v18l174 76l14 -13v-792q103 84 219.5 137t227.5 53q161 0 247 -97t86 -279v-402q0 -92 9 -142t25.5 -68.5t47.5 -26.5v-23h-270v23q31 8 47.5 26.5t25.5 68.5t9 142v358q0 184 -77 275.5 t-236 91.5q-165 0 -361 -168v-557q0 -92 9 -142t25.5 -68.5t47.5 -26.5v-23h-270z" />
<glyph unicode="i" horiz-adv-x="428" d="M76 0v23q31 8 47.5 26.5t25.5 68.5t9 142v471q0 83 -9 125t-23.5 57.5t-49.5 30.5v19l174 75l14 -12v-766q0 -92 9 -142t25.5 -68.5t47.5 -26.5v-23h-270zM115 1309q0 35 24.5 59.5t59.5 24.5q36 0 60 -24t24 -60q0 -35 -24.5 -59.5t-59.5 -24.5t-59.5 24.5t-24.5 59.5z " />
<glyph unicode="j" horiz-adv-x="471" d="M-211 -530q0 29 29.5 60.5t72.5 31.5q22 0 90 -8.5t91 -10.5q72 53 103.5 135.5t31.5 210.5v842q0 83 -9 125t-23.5 57.5t-49.5 30.5v19l174 75l14 -12v-1020q0 -111 -32.5 -207.5t-83 -162t-112.5 -112.5t-120.5 -69t-107.5 -22q-68 0 -68 37zM156 1309q0 35 24.5 59.5 t59.5 24.5q36 0 60 -24t24 -60q0 -35 -24.5 -59.5t-59.5 -24.5t-59.5 24.5t-24.5 59.5z" />
<glyph unicode="k" horiz-adv-x="1064" d="M94 0v23q31 8 47.5 26.5t25.5 68.5t9 142v1086q0 83 -9 125t-23.5 57.5t-49.5 30.5v18l174 76l15 -13v-1212l389 365q140 130 140 187q0 22 -21 34v10h223v-23q-4 -1 -17.5 -5t-18.5 -5.5t-18 -6.5t-20.5 -8.5t-21 -10.5t-24.5 -14t-26.5 -18t-30.5 -23t-34 -28.5 t-39 -35.5l-166 -156l233 -422q67 -121 118.5 -180.5t113.5 -67.5v-20h-102q-70 0 -112 47t-126 199l-203 370l-237 -223v-133q0 -92 9 -142t25.5 -68.5t47.5 -26.5v-23h-271z" />
<glyph unicode="l" horiz-adv-x="466" d="M94 0v23q31 8 47.5 26.5t25.5 68.5t9 142v1086q0 83 -9 125t-23.5 57.5t-49.5 30.5v18l174 76l15 -13v-1380q0 -92 9 -142t25.5 -68.5t47.5 -26.5v-23h-271z" />
<glyph unicode="m" horiz-adv-x="1878" d="M76 0v23q31 8 47.5 26.5t25.5 68.5t9 142v471q0 83 -9 125t-23.5 57.5t-49.5 30.5v19l174 75l14 -12v-174q247 186 428 186q237 0 293 -200q109 88 227 144t218 56q309 0 309 -342v-436q0 -92 9 -142t25.5 -68.5t47.5 -26.5v-23h-271v23q31 8 47.5 26.5t25.5 68.5t9 142 v399q0 326 -258 326q-95 0 -188.5 -46t-196.5 -124q12 -55 12 -119v-436q0 -92 9 -142t25.5 -68.5t47.5 -26.5v-23h-270v23q31 8 47.5 26.5t25.5 68.5t9 142v399q0 326 -258 326q-159 0 -373 -162v-563q0 -92 9 -142t25.5 -68.5t47.5 -26.5v-23h-270z" />
<glyph unicode="n" horiz-adv-x="1183" d="M76 0v23q31 8 47.5 26.5t25.5 68.5t9 142v471q0 83 -9 125t-23.5 57.5t-49.5 30.5v19l174 75l14 -12v-178q103 84 219.5 137t227.5 53q161 0 247 -97t86 -279v-402q0 -92 9 -142t25.5 -68.5t47.5 -26.5v-23h-270v23q31 8 47.5 26.5t25.5 68.5t9 142v358q0 184 -77 275.5 t-236 91.5q-165 0 -361 -168v-557q0 -92 9 -142t25.5 -68.5t47.5 -26.5v-23h-270z" />
<glyph unicode="o" horiz-adv-x="1226" d="M84 510q0 150 73 272.5t193 189t260 66.5q98 0 189.5 -32t167.5 -94.5t122 -167t46 -236.5q0 -101 -31.5 -188.5t-84 -149t-120.5 -105t-141.5 -64.5t-147.5 -21q-98 0 -189.5 32.5t-168 95t-122.5 167t-46 235.5zM190 588q0 -105 36 -207.5t97 -183t150.5 -130 t188.5 -49.5q173 0 272.5 115t99.5 293q0 80 -22 163t-64.5 156.5t-98.5 132t-130 92.5t-154 34q-177 0 -276 -116t-99 -300z" />
<glyph unicode="p" horiz-adv-x="1228" d="M92 -530q31 8 47.5 26.5t25.5 68.5t9 142v1024q0 83 -9 125t-23.5 57.5t-49.5 30.5v19l174 75l15 -12v-172q104 83 210.5 133.5t227.5 50.5q83 0 158 -34t133 -96.5t92.5 -160.5t34.5 -217q0 -78 -19.5 -155t-61 -147.5t-100 -124.5t-144 -87t-185.5 -34h-6 q-93 0 -182 32q-92 34 -158 84v-391q0 -93 9 -142.5t25 -68t47 -26.5v-23h-270v23zM281 332q0 -51 31 -106.5t83 -101.5t126.5 -76t154.5 -30q163 0 262.5 112t99.5 325q0 105 -23.5 198.5t-70 168.5t-123 119t-174.5 44q-104 0 -192 -43.5t-174 -114.5v-495z" />
<glyph unicode="q" horiz-adv-x="1202" d="M84 502q0 98 33.5 191t96 170t164 124.5t226.5 48.5h5q117 0 215 -44q100 -44 161 -105l55 137h15v-1317q0 -92 9 -142t25.5 -68.5t47.5 -26.5v-23h-271v23q31 8 47.5 26.5t25.5 68.5t9 142v477q-210 -204 -391 -204q-93 0 -178.5 36.5t-151 102t-104.5 165t-39 218.5z M186 578q0 -222 116.5 -371.5t305.5 -149.5q177 0 340 160l2 504q-5 99 -124 191t-261 92q-164 0 -271.5 -112t-107.5 -314z" />
<glyph unicode="r" horiz-adv-x="790" d="M76 0v23q31 8 47.5 26.5t25.5 68.5t9 142v471q0 83 -9 125t-23.5 57.5t-49.5 30.5v19l174 75l14 -12v-260q24 62 64 117.5t82 87.5q88 67 215 67q68 0 102.5 -14t34.5 -35q0 -34 -30.5 -66t-69.5 -32q-52 0 -244 51q-52 -32 -100 -117.5t-54 -156.5v-408q0 -92 9 -142 t25.5 -68.5t47.5 -26.5v-23h-270z" />
<glyph unicode="s" horiz-adv-x="903" d="M82 299l16 4q61 -144 167.5 -217.5t248.5 -73.5q102 0 169 53.5t67 153.5q0 30 -9 56.5t-21.5 46t-37 38.5t-42.5 30.5t-52.5 25.5t-52.5 20.5t-56.5 19t-52.5 17.5q-144 48 -196 80q-111 66 -120 188q-1 12 -1 25q0 123 99 197.5t247 74.5q186 0 321 -59l8 -193l-16 -4 q-44 111 -136.5 171.5t-201.5 60.5q-114 0 -180 -49.5t-66 -139.5q0 -42 19 -78t45.5 -59.5t71 -46.5t77.5 -35t84 -28q11 -4 35 -11q41 -13 62.5 -20t60 -22.5t60 -28.5t49.5 -35t43 -46t25.5 -57t10.5 -71q0 -140 -101.5 -222.5t-252.5 -84.5h-8q-117 0 -215 27 q-101 28 -154 63z" />
<glyph unicode="t" horiz-adv-x="675" d="M57 999v25l215 231h23v-231h307l-12 -25h-295v-741q0 -205 154 -205q114 0 213 113l16 -16q-57 -69 -133 -119.5t-154 -50.5q-203 0 -203 274v745h-131z" />
<glyph unicode="u" horiz-adv-x="1146" d="M61 944v19l175 75l14 -12v-637q0 -182 68.5 -265t201.5 -83q189 0 357 197v493q0 83 -9 125t-23.5 57.5t-49.5 30.5v19l174 75l14 -12v-766q0 -92 9 -142t25.5 -68.5t47.5 -26.5v-23h-137q-29 0 -40 16.5t-11 65.5v119q-201 -219 -412 -219q-157 0 -239.5 96t-82.5 264 v389q0 83 -9 125t-23.5 57.5t-49.5 30.5z" />
<glyph unicode="v" horiz-adv-x="997" d="M6 1001v23h236v-23q-23 -6 -32 -15t-6.5 -34t16 -62t42.5 -106l293 -694l264 690q35 89 35 144v10q-4 56 -57 67v23h200v-23q-42 -14 -70 -54.5t-77 -166.5l-299 -780h-76l-328 784q-52 122 -79.5 162t-61.5 55z" />
<glyph unicode="w" horiz-adv-x="1441" d="M6 1001v23h234v-23q-30 -7 -40 -26q-6 -11 -5 -32q1 -14 3 -32q6 -45 33 -137l197 -674l313 924h29l326 -922l194 672q22 75 22 126q0 88 -67 101v23h197v-23q-41 -14 -64.5 -55t-60.5 -172l-221 -774h-76l-305 864l-293 -864h-76l-225 774q-38 129 -60 171t-55 56z" />
<glyph unicode="x" horiz-adv-x="958" d="M2 0v23q34 11 54 22.5t60.5 51.5t92.5 112l211 291l-203 307q-71 109 -111 143.5t-92 50.5v23h271v-23q-33 -8 -33 -27q0 -24 62 -118q10 -15 32 -49l156 -238l172 242q56 79 69 116t-7 52t-85 22v23h256v-23q-32 -11 -53 -23t-59 -53t-90 -114l-187 -266l215 -328 q71 -109 111 -143.5t92 -50.5v-23h-268v23q33 8 33 26q0 23 -63 119q-8 13 -32 49l-170 258l-194 -266q-57 -79 -71 -114t5 -50t84 -22v-23h-258z" />
<glyph unicode="y" horiz-adv-x="1030" d="M-80 -346q0 30 31 61t67 31q27 0 116 -24.5t122 -30.5q127 92 231 313l-323 780q-35 82 -65.5 130t-49.5 63.5t-43 23.5v23h254v-23q-23 -6 -32 -15t-7 -34t15.5 -62t42.5 -106l268 -643l278 643q41 92 41 146v6q-2 55 -55 65v23h219v-23q-30 -8 -52.5 -23.5t-55.5 -63.5 t-68 -130l-324 -743q-39 -90 -82.5 -161.5t-81 -116.5t-80.5 -77t-72.5 -47.5t-66 -23.5t-53 -9t-41.5 -1h-6q-54 0 -90.5 15t-36.5 34z" />
<glyph unicode="z" horiz-adv-x="905" d="M66 0v23l636 974h-352q-96 0 -147.5 -47.5t-102.5 -173.5l-14 2l35 246h696v-23l-633 -974h383q106 0 169 62.5t83 195.5h15l-5 -285h-763z" />
<glyph unicode="{" d="M129 154v292q61 9 76 9q67 0 96 -37.5t29 -116.5t-29.5 -115t-97.5 -36q-47 0 -74 4zM158 780q0 53 33.5 91t93.5 38q39 0 78 -21t69.5 -55t58.5 -74.5t48 -81.5t35 -75t22 -55l8 -21q-117 148 -319 148q-49 0 -88 30t-39 76zM188 201q4 -2 19 -2q37 0 50 25t13 77 q0 54 -13 78t-50 24q-13 0 -19 -2v-200zM377 154v297h155v-52h-96v-69h82v-49h-82v-78h96v-49h-155zM437 1128.5q-7 46.5 24 83.5q23 23 53 34t65 3.5t64 -35.5q38 -37 48.5 -102t-2.5 -131t-31.5 -126.5t-35.5 -98.5l-18 -39q20 191 -125 330q-35 35 -42 81.5zM571 154 q3 156 15 297h80l39 -164l38 164h82q3 -45 13 -297h-60q0 108 -6 213l-41 -168h-55l-41 168h-2q-4 -140 -4 -213h-58zM647 633q3 8 9 22t25 53.5t39 75.5t50 80.5t59.5 76t66 53.5t71.5 22q49 0 79.5 -24.5t39 -51t8.5 -53.5q0 -43 -34.5 -72.5t-72.5 -34.5 q-213 -23 -340 -147zM879 301q0 81 24 117.5t84 36.5t85.5 -37t25.5 -117q0 -79 -25.5 -115t-85.5 -36t-84 35.5t-24 115.5zM938 301q0 -54 10 -78t39 -24q30 0 40.5 24t10.5 78q0 55 -10 78.5t-41 23.5q-29 0 -39 -23.5t-10 -78.5z" />
<glyph unicode="|" d="M129 154v292q61 9 76 9q67 0 96 -37.5t29 -116.5t-29.5 -115t-97.5 -36q-47 0 -74 4zM158 780q0 53 33.5 91t93.5 38q39 0 78 -21t69.5 -55t58.5 -74.5t48 -81.5t35 -75t22 -55l8 -21q-117 148 -319 148q-49 0 -88 30t-39 76zM188 201q4 -2 19 -2q37 0 50 25t13 77 q0 54 -13 78t-50 24q-13 0 -19 -2v-200zM377 154v297h155v-52h-96v-69h82v-49h-82v-78h96v-49h-155zM437 1128.5q-7 46.5 24 83.5q23 23 53 34t65 3.5t64 -35.5q38 -37 48.5 -102t-2.5 -131t-31.5 -126.5t-35.5 -98.5l-18 -39q20 191 -125 330q-35 35 -42 81.5zM571 154 q3 156 15 297h80l39 -164l38 164h82q3 -45 13 -297h-60q0 108 -6 213l-41 -168h-55l-41 168h-2q-4 -140 -4 -213h-58zM647 633q3 8 9 22t25 53.5t39 75.5t50 80.5t59.5 76t66 53.5t71.5 22q49 0 79.5 -24.5t39 -51t8.5 -53.5q0 -43 -34.5 -72.5t-72.5 -34.5 q-213 -23 -340 -147zM879 301q0 81 24 117.5t84 36.5t85.5 -37t25.5 -117q0 -79 -25.5 -115t-85.5 -36t-84 35.5t-24 115.5zM938 301q0 -54 10 -78t39 -24q30 0 40.5 24t10.5 78q0 55 -10 78.5t-41 23.5q-29 0 -39 -23.5t-10 -78.5z" />
<glyph unicode="}" d="M129 154v292q61 9 76 9q67 0 96 -37.5t29 -116.5t-29.5 -115t-97.5 -36q-47 0 -74 4zM158 780q0 53 33.5 91t93.5 38q39 0 78 -21t69.5 -55t58.5 -74.5t48 -81.5t35 -75t22 -55l8 -21q-117 148 -319 148q-49 0 -88 30t-39 76zM188 201q4 -2 19 -2q37 0 50 25t13 77 q0 54 -13 78t-50 24q-13 0 -19 -2v-200zM377 154v297h155v-52h-96v-69h82v-49h-82v-78h96v-49h-155zM437 1128.5q-7 46.5 24 83.5q23 23 53 34t65 3.5t64 -35.5q38 -37 48.5 -102t-2.5 -131t-31.5 -126.5t-35.5 -98.5l-18 -39q20 191 -125 330q-35 35 -42 81.5zM571 154 q3 156 15 297h80l39 -164l38 164h82q3 -45 13 -297h-60q0 108 -6 213l-41 -168h-55l-41 168h-2q-4 -140 -4 -213h-58zM647 633q3 8 9 22t25 53.5t39 75.5t50 80.5t59.5 76t66 53.5t71.5 22q49 0 79.5 -24.5t39 -51t8.5 -53.5q0 -43 -34.5 -72.5t-72.5 -34.5 q-213 -23 -340 -147zM879 301q0 81 24 117.5t84 36.5t85.5 -37t25.5 -117q0 -79 -25.5 -115t-85.5 -36t-84 35.5t-24 115.5zM938 301q0 -54 10 -78t39 -24q30 0 40.5 24t10.5 78q0 55 -10 78.5t-41 23.5q-29 0 -39 -23.5t-10 -78.5z" />
<glyph unicode="~" d="M129 154v292q61 9 76 9q67 0 96 -37.5t29 -116.5t-29.5 -115t-97.5 -36q-47 0 -74 4zM158 780q0 53 33.5 91t93.5 38q39 0 78 -21t69.5 -55t58.5 -74.5t48 -81.5t35 -75t22 -55l8 -21q-117 148 -319 148q-49 0 -88 30t-39 76zM188 201q4 -2 19 -2q37 0 50 25t13 77 q0 54 -13 78t-50 24q-13 0 -19 -2v-200zM377 154v297h155v-52h-96v-69h82v-49h-82v-78h96v-49h-155zM437 1128.5q-7 46.5 24 83.5q23 23 53 34t65 3.5t64 -35.5q38 -37 48.5 -102t-2.5 -131t-31.5 -126.5t-35.5 -98.5l-18 -39q20 191 -125 330q-35 35 -42 81.5zM571 154 q3 156 15 297h80l39 -164l38 164h82q3 -45 13 -297h-60q0 108 -6 213l-41 -168h-55l-41 168h-2q-4 -140 -4 -213h-58zM647 633q3 8 9 22t25 53.5t39 75.5t50 80.5t59.5 76t66 53.5t71.5 22q49 0 79.5 -24.5t39 -51t8.5 -53.5q0 -43 -34.5 -72.5t-72.5 -34.5 q-213 -23 -340 -147zM879 301q0 81 24 117.5t84 36.5t85.5 -37t25.5 -117q0 -79 -25.5 -115t-85.5 -36t-84 35.5t-24 115.5zM938 301q0 -54 10 -78t39 -24q30 0 40.5 24t10.5 78q0 55 -10 78.5t-41 23.5q-29 0 -39 -23.5t-10 -78.5z" />
<glyph unicode="&#xad;" d="M129 154v292q61 9 76 9q67 0 96 -37.5t29 -116.5t-29.5 -115t-97.5 -36q-47 0 -74 4zM158 780q0 53 33.5 91t93.5 38q39 0 78 -21t69.5 -55t58.5 -74.5t48 -81.5t35 -75t22 -55l8 -21q-117 148 -319 148q-49 0 -88 30t-39 76zM188 201q4 -2 19 -2q37 0 50 25t13 77 q0 54 -13 78t-50 24q-13 0 -19 -2v-200zM377 154v297h155v-52h-96v-69h82v-49h-82v-78h96v-49h-155zM437 1128.5q-7 46.5 24 83.5q23 23 53 34t65 3.5t64 -35.5q38 -37 48.5 -102t-2.5 -131t-31.5 -126.5t-35.5 -98.5l-18 -39q20 191 -125 330q-35 35 -42 81.5zM571 154 q3 156 15 297h80l39 -164l38 164h82q3 -45 13 -297h-60q0 108 -6 213l-41 -168h-55l-41 168h-2q-4 -140 -4 -213h-58zM647 633q3 8 9 22t25 53.5t39 75.5t50 80.5t59.5 76t66 53.5t71.5 22q49 0 79.5 -24.5t39 -51t8.5 -53.5q0 -43 -34.5 -72.5t-72.5 -34.5 q-213 -23 -340 -147zM879 301q0 81 24 117.5t84 36.5t85.5 -37t25.5 -117q0 -79 -25.5 -115t-85.5 -36t-84 35.5t-24 115.5zM938 301q0 -54 10 -78t39 -24q30 0 40.5 24t10.5 78q0 55 -10 78.5t-41 23.5q-29 0 -39 -23.5t-10 -78.5z" />
<glyph unicode="&#x2000;" horiz-adv-x="826" />
<glyph unicode="&#x2001;" horiz-adv-x="1653" />
<glyph unicode="&#x2002;" horiz-adv-x="826" />
<glyph unicode="&#x2003;" horiz-adv-x="1653" />
<glyph unicode="&#x2004;" horiz-adv-x="551" />
<glyph unicode="&#x2005;" horiz-adv-x="413" />
<glyph unicode="&#x2006;" horiz-adv-x="275" />
<glyph unicode="&#x2007;" horiz-adv-x="275" />
<glyph unicode="&#x2008;" horiz-adv-x="206" />
<glyph unicode="&#x2009;" horiz-adv-x="330" />
<glyph unicode="&#x200a;" horiz-adv-x="91" />
<glyph unicode="&#x2010;" d="M129 154v292q61 9 76 9q67 0 96 -37.5t29 -116.5t-29.5 -115t-97.5 -36q-47 0 -74 4zM158 780q0 53 33.5 91t93.5 38q39 0 78 -21t69.5 -55t58.5 -74.5t48 -81.5t35 -75t22 -55l8 -21q-117 148 -319 148q-49 0 -88 30t-39 76zM188 201q4 -2 19 -2q37 0 50 25t13 77 q0 54 -13 78t-50 24q-13 0 -19 -2v-200zM377 154v297h155v-52h-96v-69h82v-49h-82v-78h96v-49h-155zM437 1128.5q-7 46.5 24 83.5q23 23 53 34t65 3.5t64 -35.5q38 -37 48.5 -102t-2.5 -131t-31.5 -126.5t-35.5 -98.5l-18 -39q20 191 -125 330q-35 35 -42 81.5zM571 154 q3 156 15 297h80l39 -164l38 164h82q3 -45 13 -297h-60q0 108 -6 213l-41 -168h-55l-41 168h-2q-4 -140 -4 -213h-58zM647 633q3 8 9 22t25 53.5t39 75.5t50 80.5t59.5 76t66 53.5t71.5 22q49 0 79.5 -24.5t39 -51t8.5 -53.5q0 -43 -34.5 -72.5t-72.5 -34.5 q-213 -23 -340 -147zM879 301q0 81 24 117.5t84 36.5t85.5 -37t25.5 -117q0 -79 -25.5 -115t-85.5 -36t-84 35.5t-24 115.5zM938 301q0 -54 10 -78t39 -24q30 0 40.5 24t10.5 78q0 55 -10 78.5t-41 23.5q-29 0 -39 -23.5t-10 -78.5z" />
<glyph unicode="&#x2011;" d="M129 154v292q61 9 76 9q67 0 96 -37.5t29 -116.5t-29.5 -115t-97.5 -36q-47 0 -74 4zM158 780q0 53 33.5 91t93.5 38q39 0 78 -21t69.5 -55t58.5 -74.5t48 -81.5t35 -75t22 -55l8 -21q-117 148 -319 148q-49 0 -88 30t-39 76zM188 201q4 -2 19 -2q37 0 50 25t13 77 q0 54 -13 78t-50 24q-13 0 -19 -2v-200zM377 154v297h155v-52h-96v-69h82v-49h-82v-78h96v-49h-155zM437 1128.5q-7 46.5 24 83.5q23 23 53 34t65 3.5t64 -35.5q38 -37 48.5 -102t-2.5 -131t-31.5 -126.5t-35.5 -98.5l-18 -39q20 191 -125 330q-35 35 -42 81.5zM571 154 q3 156 15 297h80l39 -164l38 164h82q3 -45 13 -297h-60q0 108 -6 213l-41 -168h-55l-41 168h-2q-4 -140 -4 -213h-58zM647 633q3 8 9 22t25 53.5t39 75.5t50 80.5t59.5 76t66 53.5t71.5 22q49 0 79.5 -24.5t39 -51t8.5 -53.5q0 -43 -34.5 -72.5t-72.5 -34.5 q-213 -23 -340 -147zM879 301q0 81 24 117.5t84 36.5t85.5 -37t25.5 -117q0 -79 -25.5 -115t-85.5 -36t-84 35.5t-24 115.5zM938 301q0 -54 10 -78t39 -24q30 0 40.5 24t10.5 78q0 55 -10 78.5t-41 23.5q-29 0 -39 -23.5t-10 -78.5z" />
<glyph unicode="&#x2012;" d="M129 154v292q61 9 76 9q67 0 96 -37.5t29 -116.5t-29.5 -115t-97.5 -36q-47 0 -74 4zM158 780q0 53 33.5 91t93.5 38q39 0 78 -21t69.5 -55t58.5 -74.5t48 -81.5t35 -75t22 -55l8 -21q-117 148 -319 148q-49 0 -88 30t-39 76zM188 201q4 -2 19 -2q37 0 50 25t13 77 q0 54 -13 78t-50 24q-13 0 -19 -2v-200zM377 154v297h155v-52h-96v-69h82v-49h-82v-78h96v-49h-155zM437 1128.5q-7 46.5 24 83.5q23 23 53 34t65 3.5t64 -35.5q38 -37 48.5 -102t-2.5 -131t-31.5 -126.5t-35.5 -98.5l-18 -39q20 191 -125 330q-35 35 -42 81.5zM571 154 q3 156 15 297h80l39 -164l38 164h82q3 -45 13 -297h-60q0 108 -6 213l-41 -168h-55l-41 168h-2q-4 -140 -4 -213h-58zM647 633q3 8 9 22t25 53.5t39 75.5t50 80.5t59.5 76t66 53.5t71.5 22q49 0 79.5 -24.5t39 -51t8.5 -53.5q0 -43 -34.5 -72.5t-72.5 -34.5 q-213 -23 -340 -147zM879 301q0 81 24 117.5t84 36.5t85.5 -37t25.5 -117q0 -79 -25.5 -115t-85.5 -36t-84 35.5t-24 115.5zM938 301q0 -54 10 -78t39 -24q30 0 40.5 24t10.5 78q0 55 -10 78.5t-41 23.5q-29 0 -39 -23.5t-10 -78.5z" />
<glyph unicode="&#x2013;" horiz-adv-x="1279" d="M129 154v292q64 9 80 9q71 0 101.5 -37.5t30.5 -116.5t-31 -115t-103 -36q-49 0 -78 4zM160 780q0 53 35 91t99 38q41 0 82 -21t73.5 -55t62 -74.5t50.5 -81.5t37 -75t24 -55l8 -21q-124 148 -337 148q-52 0 -93 30t-41 76zM191 201q5 -2 20 -2q40 0 53.5 25t13.5 77 q0 54 -13.5 78t-53.5 24q-13 0 -20 -2v-200zM391 154v297h164v-52h-102v-69h87v-49h-87v-78h102v-49h-164zM454.5 1128.5q-7.5 46.5 25.5 83.5q24 23 56 34t69 3.5t67 -35.5q40 -37 51.5 -102t-2.5 -131t-33.5 -126.5t-37.5 -98.5l-19 -39q21 191 -132 330 q-37 35 -44.5 81.5zM596 154q3 156 16 297h84l42 -164l40 164h87q3 -45 13 -297h-63q0 108 -7 213l-43 -168h-58l-43 168h-2q-5 -140 -5 -213h-61zM676 633q4 8 10 22t26 53.5t41.5 75.5t53 80.5t62.5 76t70 53.5t76 22q51 0 83.5 -24.5t41.5 -51t9 -53.5q0 -43 -36.5 -72.5 t-76.5 -34.5q-225 -23 -360 -147zM922 301q0 81 25 117.5t88.5 36.5t90.5 -37t27 -117q0 -79 -27 -115t-90.5 -36t-88.5 35.5t-25 115.5zM984 301q0 -54 10.5 -78t41.5 -24t42.5 24t11.5 78q0 55 -11 78.5t-43 23.5q-31 0 -41.5 -23.5t-10.5 -78.5z" />
<glyph unicode="&#x2014;" horiz-adv-x="2303" d="M129 154v292q129 9 161 9q141 0 202.5 -37.5t61.5 -116.5t-62.5 -115t-206.5 -36q-99 0 -156 4zM190 780q0 53 71 91t198 38q82 0 164.5 -21t147 -55t123.5 -74.5t101.5 -81.5t74 -75t46.5 -55l17 -21q-247 148 -674 148q-104 0 -186.5 30t-82.5 76zM254 201q8 -2 40 -2 q78 0 105.5 25t27.5 77q0 54 -27.5 78t-105.5 24q-28 0 -40 -2v-200zM653 154v297h328v-52h-203v-69h173v-49h-173v-78h203v-49h-328zM780 1128.5q-15 46.5 51 83.5q48 23 111.5 34t137.5 3.5t135 -35.5q81 -37 103 -102t-5.5 -131t-66.5 -126.5t-75 -98.5l-38 -39 q42 191 -264 330q-74 35 -89 81.5zM1063 154q7 156 32 297h169l82 -164l81 164h173q6 -45 27 -297h-126q0 108 -13 213l-87 -168h-116l-87 168h-4q-8 -140 -8 -213h-123zM1224 633q6 8 19 22t53 53.5t82 75.5t105.5 80.5t126 76t139.5 53.5t151 22q104 0 168.5 -24.5 t82.5 -51t18 -53.5q0 -43 -73 -72.5t-154 -34.5q-450 -23 -718 -147zM1714 301q0 81 51 117.5t177.5 36.5t180.5 -37t54 -117q0 -79 -54 -115t-180.5 -36t-177.5 35.5t-51 115.5zM1839 301q0 -54 21 -78t82 -24q64 0 86 24t22 78q0 55 -21 78.5t-87 23.5q-61 0 -82 -23.5 t-21 -78.5z" />
<glyph unicode="&#x202f;" horiz-adv-x="330" />
<glyph unicode="&#x205f;" horiz-adv-x="413" />
<glyph unicode="&#x25fc;" horiz-adv-x="1024" d="M0 0v1024h1024v-1024h-1024z" />
</font>
</defs>
</svg>
