<?xml version="1.0" standalone="no"?>
<!DOCTYPE svg PUBLIC "-//W3C//DTD SVG 1.1//EN" "http://www.w3.org/Graphics/SVG/1.1/DTD/svg11.dtd" >
<svg xmlns="http://www.w3.org/2000/svg" xmlns:xlink="http://www.w3.org/1999/xlink" version="1.1">
<metadata></metadata>
<defs>
<font id="gredomregular" horiz-adv-x="491" >
<font-face units-per-em="2048" ascent="1638" descent="-410" />
<missing-glyph horiz-adv-x="505" />
<glyph horiz-adv-x="0" />
<glyph horiz-adv-x="682" />
<glyph unicode=" "  horiz-adv-x="505" />
<glyph unicode="&#x09;" horiz-adv-x="505" />
<glyph unicode="&#xa0;" horiz-adv-x="505" />
<glyph unicode="!" horiz-adv-x="702" d="M61 -74q0 17 12 29t29 12t29 -12t12 -29t-12 -29t-29 -12t-29 12t-12 29zM141 43q16 99 102.5 310t193 411.5t171.5 265.5q12 12 26 6t17.5 -20.5t-6.5 -28.5q-108 -119 -262.5 -421t-241.5 -523z" />
<glyph unicode="&#x22;" horiz-adv-x="380" d="M80 1208v2q15 -2 31 4q13 5 22 17q8 8 10 12q-30 7 -30 41q0 17 11 29t28 12t29 -12t12 -29q0 -24 -13 -47q-15 -22 -28 -31q-20 -10 -37 -10q-24 3 -35 12zM201 1208v2q14 -2 30 4q15 6 23 17q8 8 10 12q-14 3 -22.5 14.5t-8.5 26.5q0 17 11 29t28 12t29 -12t12 -29 q0 -26 -12 -47q-14 -21 -29 -31q-20 -10 -36 -10q-24 3 -35 12z" />
<glyph unicode="#" horiz-adv-x="1304" d="M0 149q0 1 2 1q122 -16 277 -19q71 139 153 270q-157 6 -254 29q-14 4 -18 19.5t3 28.5t19 11q111 -23 283 -36q147 234 244 315q3 3 3.5 2t-1.5 -4q-86 -111 -205 -315q168 -7 297 -7q142 251 235 344q18 19 36 2q20 -17 7 -40q-2 -5 -6 -9q-102 -117 -215 -297 q242 7 373 29q8 0 0 -4q-103 -42 -397 -63q-76 -123 -156 -267q228 13 364 47q16 3 26 -10t8.5 -29t-15.5 -20q-127 -36 -410 -39q-78 -145 -125 -264q-2 -2 -2 0q14 88 92 264q-132 -3 -299 8q-67 -136 -116 -282q-4 -17 -27 -12t-23 27q0 4 1 9q22 87 108 262 q-186 17 -260 47q-3 0 -2 2zM336 129q172 0 305 8q66 139 137 266q-127 -8 -301 -4q-85 -152 -141 -270z" />
<glyph unicode="$" horiz-adv-x="1177" d="M2 276q0 4 1 4t1 -4q0 -128 39 -229q37 -91 107 -158q56 -54 143 -90q107 248 268 535q-87 56 -131 94q-95 93 -93 177t74 144t179 70q119 8 237 -45q124 177 185 238q17 17 35.5 -1.5t3.5 -35.5q-90 -104 -177 -225q96 -52 181 -154q9 -10 2 -23.5t-19.5 -17t-23.5 7.5 q-78 93 -166 148q-95 -136 -234 -365l60 -31q151 -73 233 -137q53 -47 80 -90q29 -59 29 -117q-3 -32 -17 -65q-13 -30 -38 -58q-46 -48 -127 -88q-165 -67 -359 -49q-98 12 -176 45q-74 -156 -115 -268q-2 -6 -2 0q18 89 97 276q-89 44 -150 105q-65 67 -102 172 q-34 104 -25 235zM315 -211q81 -27 164 -35q187 -9 334 53q67 31 109 76q17 19 28 45q5 7 13 45q0 43 -23 88q-19 34 -66 78q-66 56 -219 142l-59 32q-163 -276 -281 -524zM363.5 553.5q17.5 -60.5 80.5 -109.5q28 -20 134 -79q103 184 223 370q-104 49 -209 49 q-80 -2 -139.5 -36.5t-83 -84t-6 -110z" />
<glyph unicode="%" horiz-adv-x="1077" d="M217 516q-7 40 2 90q6 34 35 94q56 103 145 154q51 28 99 33q51 3 100 -17q6 -2 6 -3t-6 1q-52 12 -98 2q-38 -7 -88 -36q-75 -59 -121 -152q-23 -57 -27 -84q-7 -43 0 -72q2 -8 10 -24q8 -13 17 -17q6 -6 22 -10q12 -4 35 -4q36 3 58 12q18 8 45 31q41 39 69 102 q23 60 31 127q3 57 -10 103q-1 3 0 4t2 -2q25 -41 28 -107q3 -73 -16 -137q-24 -75 -72 -125q-24 -24 -57 -41q-34 -15 -76 -18q-37 0 -49 6q-22 6 -41 18q-19 16 -29 33q-7 13 -14 39zM248 -313q27 139 161 417t296 541.5t264 366.5q9 11 22 5.5t17 -17.5t-4 -23 q-179 -199 -417 -611t-337 -679q0 -3 -1 -3t-1 3zM584 20q-8 45 0 91q8 33 37 94q55 102 145 153q46 25 98 33q54 3 101 -16q5 -2 5.5 -2.5t-5.5 0.5q-53 12 -99 2q-47 -11 -88 -39q-79 -59 -121 -150q-21 -43 -26 -84q-7 -44 0 -71q4 -17 10 -25q8 -12 14 -16q2 -1 25 -13 q12 -2 35 -2q26 0 55 13q31 14 47 30q42 40 70 103q22 60 28 125q6 55 -8 104q-2 3 -1.5 4t3.5 -2q22 -41 29 -106q3 -73 -16 -137q-24 -75 -72 -125q-29 -29 -59 -41q-34 -16 -74 -19q-37 0 -49 6q-26 6 -41 19q-19 16 -29 33q-11 16 -14 38z" />
<glyph unicode="&#x26;" horiz-adv-x="1081" d="M102 -63q-3 31 13 83q41 128 184 277q9 8 25.5 23.5t30 28.5t26.5 24q-10 49 -14 145q6 226 106 397q56 88 139 143t176 54q59 0 97 -34t41 -93q3 -58 -22 -121t-61 -113t-94 -108.5t-99 -94t-98 -81.5l-15 -12q-11 -10 -44 -37t-51 -43q3 -23 9 -43q20 -87 55 -142 q80 80 139 134q106 101 205 168q15 10 16 3q1 -6 -10 -14q-17 -12 -35.5 -27.5t-32.5 -27.5t-34.5 -31t-31 -29t-32 -31t-28.5 -28l-138 -141q40 -49 94 -70q58 -20 113 -14q17 2 17 -2.5t-17 -7.5q-57 -15 -121 -4q-65 16 -114 65q-59 -59 -138 -145q-55 -55 -98 -84 q-49 -29 -80 -31q-26 -3 -43 8q-29 16 -35 56zM141 -59q4 -21 15 -27q12 -4 20 -4q27 5 64 27q44 29 92 77l141 144q-51 61 -80 159q0 5 -4 13q-37 -33 -61 -60q-136 -139 -178 -262q-12 -40 -9 -67zM432 518q0 -65 4 -98q14 13 41.5 35t36.5 30q58 48 92 77.5t96 91 t97.5 108.5t63.5 108t26 113q-1 50 -36 77t-89 27q-80 0 -142.5 -55.5t-105.5 -138.5q-81 -172 -84 -375z" />
<glyph unicode="'" horiz-adv-x="292" d="M66 1208v2q14 -2 30 4q15 6 23 17q8 8 10 12q-14 3 -22.5 14.5t-8.5 26.5q0 17 11 29t28 12t29 -12t12 -29q0 -26 -12 -47q-14 -21 -29 -31q-20 -10 -37 -10q-23 3 -34 12z" />
<glyph unicode="(" horiz-adv-x="612" d="M107 189.5q4 113.5 38 250.5q39 139 95.5 247.5t146.5 211.5q91 97 188 152q110 57 220 67q12 0 0 -4q-104 -21 -207 -84q-89 -61 -170 -158q-81 -103 -132 -207t-89 -237q-33 -135 -40 -241t11 -242q24 -117 74 -207q54 -91 139 -154q3 -3 2 -3.5t-4 1.5 q-90 52 -156 144q-64 95 -92 211q-28 139 -24 252.5z" />
<glyph unicode=")" horiz-adv-x="688" d="M-120 -364q0 1 3 2q106 21 207 86q99 68 170 157q81 103 132 207.5t89 237.5q33 134 40 240t-13 243q-21 116 -72 205q-52 91 -139 155q-3 1 -2 2t4 0q94 -54 156 -145q62 -90 92 -209q28 -140 23.5 -253t-38.5 -253q-39 -139 -95 -246t-146 -210q-82 -91 -189 -152 q-113 -58 -217 -68q-4 0 -5 1z" />
<glyph unicode="*" horiz-adv-x="561" d="M4 891q-6 2 0 2q64 14 184 53q-68 86 -100 152q-5 11 2.5 19t18.5 7t16 -12q20 -43 82 -139q36 84 57 157q2 8 12 9t19 -4t8 -11q-17 -64 -65 -161q122 48 155 67q8 4 16.5 -3.5t9.5 -17t-5 -14.5q-59 -32 -178 -65q94 -129 120 -158q4 -4 -2 -2q-59 39 -141 145 q-65 -123 -113 -165q-3 -3 -3.5 -2t1.5 4q40 65 84 166q-129 -32 -178 -27z" />
<glyph unicode="+" horiz-adv-x="794" d="M78 318l6 4q152 23 285 26q56 143 125 262q2 7 5 3q1 -2 1 -7q-25 -132 -68 -258q121 -3 264 -26q9 -3 9 -4.5t-9 -4.5q-158 -24 -282 -24q-53 -140 -125 -260q-6 -10 -6 0q24 133 67 260q-170 7 -266 28q-6 0 -6 1z" />
<glyph unicode="," horiz-adv-x="278" d="M43 -86q21 0 31 4q14 6 22 16q8 8 10 15q-13 3 -21.5 14t-8.5 25q0 17 11 29t28 12t29 -12t12 -29q0 -24 -13 -47q-12 -19 -28 -29q-15 -10 -37 -10q-18 0 -35 10q-2 2 0 2z" />
<glyph unicode="-" horiz-adv-x="819" d="M81 317.5q0 1.5 9 4.5q312 59 623 0q9 -3 9 -4.5t-9 -4.5q-311 -53 -623 0q-9 3 -9 4.5z" />
<glyph unicode="." horiz-adv-x="237" d="M68 8q0 17 12 29t29 12t29 -12t12 -29t-12 -29t-29 -12t-29 12t-12 29z" />
<glyph unicode="/" horiz-adv-x="526" d="M82 -397q212 956 448 1859q7 22 22 27t26 -7t6 -32q-44 -166 -150.5 -574.5t-187 -705t-162.5 -567.5h-2z" />
<glyph unicode="0" horiz-adv-x="1036" d="M6 299q15 101 66 215q61 121 137.5 207.5t189.5 157.5q119 65 242 84q131 18 274 -19l5 -2q0 -2 -5 0q-136 28 -272 4q-116 -24 -229 -92q-105 -71 -175.5 -156t-125.5 -202q-47 -106 -60 -203q-10 -100 13 -176q24 -74 81 -115q64 -41 166 -41q81 6 143 30.5t126 74.5 q63 52 104.5 107.5t79.5 133.5q67 151 72 303q0 160 -68 285q-1 3 -0.5 3.5t2.5 -1.5q78 -117 90 -287q3 -160 -59 -319q-67 -156 -189 -264q-71 -58 -140 -85.5t-159 -33.5q-116 -3 -196 49q-75 56 -103 145q-25 95 -10 197z" />
<glyph unicode="1" horiz-adv-x="778" d="M0 -397q62 247 255.5 615t389.5 642q-123 -95 -186 -131q-155 -94 -406 -98v2q120 16 205.5 44t179.5 87q52 34 138.5 105t121.5 96l45 34l15 9l8 4h6q6 0 10 -2q10 -3 15 -11q2 -4 2 -6l2 -10q0 -2 -1 -4.5t-1 -3.5q-2 -2 -2 -6l-4 -4l-11 -13q-18 -24 -34 -41 q-193 -247 -420.5 -642t-325.5 -666h-2z" />
<glyph unicode="2" horiz-adv-x="1052" d="M1 -407q-7 22 13 42q50 47 146.5 136.5t156 144.5t140.5 133.5t149 147.5q206 216 299 340q60 84 92 147q33 67 35 115q0 52 -14 88q-13 33 -43 57q-31 24 -68 35q-42 11 -88 8q-94 -5 -196 -59q-101 -63 -164 -164q-2 -4 -2 0q28 61 62.5 103.5t88.5 82.5q101 67 207 80 q49 5 103 -4q49 -14 88 -41q38 -30 61 -78q18 -48 18 -110q-2 -60 -41 -135q-36 -70 -98 -156q-122 -156 -309 -340q-290 -278 -592 -514q256 126 479 184q159 38 279 21q59 -8 112 -37q51 -33 80 -78q1 -3 0 -4t-2 2q-38 47 -84 67q-47 23 -108 29q-115 5 -266 -37 q-205 -62 -498 -211l-4 -2q-25 -14 -32 7z" />
<glyph unicode="3" horiz-adv-x="1032" d="M0 -82q0 88 41 166l3 3q0 -1 -1 -5q-27 -74 -18 -162q8 -76 53 -147q47 -66 119 -107q74 -38 182 -41q104 0 194 33q92 37 148 86q60 51 98 121q35 59 47 137q9 70 -8 135q-18 65 -67 119q-54 54 -134 84q-62 20 -102 25q-38 -12 -100 -19q-9 0 -28 -1t-28 -1 q-40 0 -45 23q-5 18 18 27q9 3 21 3q10 0 30 1t30 1q86 8 172 50q75 38 141 104q54 60 90 133q31 74 29 135q-3 46 -25 86q-23 36 -57 58q-41 25 -80 32q-45 8 -96 2q-107 -14 -187 -86q-49 -46 -74.5 -95.5t-37.5 -117.5q8 70 31 123t69 103q82 79 195 102q62 7 104 0 q52 -8 94 -33q46 -27 72 -67q26 -46 35 -103q4 -66 -29 -155q-33 -78 -98 -152q-64 -69 -152 -117q-31 -16 -65 -28q16 -1 78 -15q86 -26 147 -82q56 -54 82 -126q22 -65 16 -154q-8 -78 -47 -154q-41 -77 -106 -137q-65 -58 -162 -96q-101 -37 -213 -37q-117 3 -205 51 q-85 50 -129 129q-42 75 -45 166z" />
<glyph unicode="4" horiz-adv-x="1273" d="M5.5 120q-15.5 20 2.5 38q94 79 146.5 124t126 116t133.5 139q105 126 165 236t97 255q1 3 2.5 2.5t-0.5 -2.5q-25 -152 -79.5 -269t-154.5 -249q-92 -116 -245 -258q69 16 133 16q25 -2 51 -5t58 -9t54.5 -10t62 -13.5t56.5 -13.5t62 -15t57 -14q62 133 127 254 q142 257 283 410q77 80 151 129q72 46 142 49q4 0 0 -2q-66 -7 -138 -57q-71 -52 -139 -133q-130 -156 -264 -414q-70 -137 -117 -248q19 -5 92 -20q57 -11 98 -16t100 -5t105.5 20t77.5 60l5 3l-3 -5q-104 -132 -389 -90q-61 11 -100 20q-145 -349 -170 -585 q-5 -18 -18 -24t-24 2.5t-11 25.5q31 263 176 590q-276 61 -385 65q-167 -3 -287 -98q-24 -19 -39.5 1z" />
<glyph unicode="5" horiz-adv-x="1118" d="M6 193q0 5 1 5t1 -5q0 -110 35 -201q34 -84 94 -144q62 -59 139 -86q87 -31 173 -26q179 6 313 137q134 134 143 311h-2q3 78 -14 138q-17 54 -51 102q-38 46 -82 72.5t-107 46.5q-54 14 -131 18q-194 0 -362 -102q-4 -4 -6 -4q-6 -3 -7.5 -1.5t2.5 7.5q16 27 86 157 q67 146 115 338q0 10 10 5q17 -9 53 -28t49 -25t41 -18t48 -16t50.5 -8.5t66.5 -5.5q120 -3 219 27q32 8 84 37q35 20 57 51q2 2 2.5 1.5t-0.5 -3.5q-20 -36 -51 -60q-28 -24 -84 -49q-103 -41 -227 -47q-91 -1 -147 14.5t-136 55.5q-31 -142 -123 -283q-19 -31 -74 -102 q-16 -20 -24 -33q78 58 178.5 91.5t198.5 33.5q58 3 122 -12q135 -29 218 -127q39 -49 63 -119q18 -68 18 -154h-2q-3 -96 -44.5 -185.5t-112.5 -160.5q-147 -144 -344 -153q-97 -6 -197 32q-89 36 -152 105q-61 70 -90 164q-24 102 -10 209z" />
<glyph unicode="6" horiz-adv-x="1021" d="M8 -6q-20 145 5.5 284t88.5 295q80 183 179 321t245 269q167 138 328.5 209t372.5 94q5 0 5 -1t-5 -1q-207 -30 -364 -105.5t-318 -217.5q-139 -131 -232.5 -268.5t-167.5 -315.5q-94 -247 -94 -424q25 128 115 268q69 93 156 152q78 49 157 57q12 2 35 2q27 0 41 -2 q163 -17 215 -180q25 -67 18 -170q-7 -96 -40 -182q-46 -128 -137.5 -223t-209.5 -125q-53 -10 -96 -13q-19 0 -51 4q-29 6 -61 17q-56 24 -89 57q-40 42 -61.5 88.5t-34.5 110.5zM53 63l6 -59q22 -108 82 -170q32 -32 70 -45q43 -18 94 -18q19 0 55 4q115 19 204 108 t134 213q33 92 39 168q3 90 -16 152q-42 127 -168 141q-12 2 -35 2q-21 0 -31 -2q-72 -8 -139 -47q-82 -52 -147 -135q-116 -150 -148 -312z" />
<glyph unicode="7" horiz-adv-x="1112" d="M1 -799q-1 7 1 15q80 386 465 1085q203 355 379 559q5 6 14.5 17t17.5 20t15 16h-12q-71 0 -197 17t-190 18q-75 0 -144 -28q-58 -26 -108 -76q-34 -35 -65.5 -79t-48.5 -73t-50 -88q24 63 38 97t40.5 82t58.5 87q52 61 115 93q71 35 164 38q74 0 201.5 -21t185.5 -24h55 q158 148 262 146q18 0 27.5 -10t9.5 -23q0 -30 -27 -56.5t-61 -43.5q-96 -49 -227 -56l-58 -65q-168 -214 -360 -565q-147 -280 -275 -572.5t-174 -503.5q-7 -27 -30 -26q-20 1 -22 20zM961 956q96 3 178 31q34 12 62 33t28 47q0 29 -31 29q-52 0 -118 -43.5t-119 -96.5z " />
<glyph unicode="8" horiz-adv-x="1042" d="M0 -145q-3 84 33 165q39 76 96 136q102 102 262 190q78 43 131 68q0 34 4 100q10 151 41 266q40 133 103 213q39 48 80 75t100 42q121 25 268 -18q6 -3 6 -3.5t-8 1.5q-156 35 -262 6q-97 -30 -166 -117q-60 -87 -88 -207q-27 -121 -33 -262q-2 -23 -2 -74 q218 110 342 197q64 48 107 91t80 101q41 65 59 126.5t21 140.5q1 115 -29 209.5t-96 195.5q-71 97 -149.5 159t-186.5 101q-3 1 -3 2t3 0q111 -36 193 -96t157 -158q70 -100 103 -197t36 -218q-3 -84 -20.5 -148.5t-57.5 -134.5q-40 -63 -84.5 -110t-109.5 -97 q-29 -21 -61.5 -42t-57 -36.5t-64 -37.5t-58.5 -32.5t-65.5 -35.5t-60.5 -33q-8 -290 -43 -420q-25 -74 -56.5 -127t-84.5 -100q-43 -37 -88 -55q-49 -19 -88 -19q-37 0 -78 12q-31 12 -64 41q-28 26 -43 62q-15 34 -18 78zM53 -143q3 -36 15 -60q13 -26 30 -43 q20 -20 45 -28q27 -11 58 -11t69 15q32 13 74 47q47 40 75 87.5t52 115.5q35 115 47 380l-102 -55q-159 -93 -250 -184q-50 -53 -86 -123q-30 -72 -27 -141z" />
<glyph unicode="9" horiz-adv-x="1146" d="M0 346q-5 60 29 139q37 81 102 152q87 93 184 155t230 119q166 63 318 88t339 23q20 0 0 -4q-184 -8 -334 -39t-311 -100q-123 -55 -215.5 -118.5t-175.5 -154.5q-59 -68 -92 -141q-25 -67 -21 -113q2 -16 13 -41q11 -17 28 -28q26 -16 47 -21q36 -9 70 -6q109 2 250 66 q128 58 276 159l131 103q25 36 53 75t73.5 99t82.5 98t53 37q9 0 9 -8q0 -38 -113.5 -171.5t-159.5 -176.5q-113 -177 -172 -283q-338 -579 -577 -1022q-17 -28 -39 -13.5t-8 40.5q275 502 596 1013l131 207l-35 -30q-138 -105 -281 -175q-150 -68 -270 -73q-46 0 -82 10 q-36 9 -66 27q-28 22 -43 47q-14 29 -20 61zM932 639q33 33 114 126t82 114q1 31 -90 -90q-68 -90 -106 -150z" />
<glyph unicode=":" horiz-adv-x="288" d="M61 201q0 17 12 29t29 12t29 -12t12 -29t-12 -29t-29 -12t-29 12t-12 29zM129 428q0 17 12 29t29 12t29 -12t12 -29t-12 -29t-29 -12t-29 12t-12 29z" />
<glyph unicode=";" horiz-adv-x="354" d="M82 125v2q16 -3 33 4q13 5 22 14l10 15q-30 7 -30 41q0 17 11 29t28 12t29 -12t12 -29v-2q0 -22 -13 -45q-11 -20 -28 -31q-20 -10 -37 -10q-24 3 -37 12zM184 428q0 17 12 29t29 12t29 -12t12 -29t-12 -29t-29 -12t-29 12t-12 29z" />
<glyph unicode="&#x3c;" horiz-adv-x="471" d="M102 313q12 33 112 113.5t138 89.5q2 2 2 1t-2 -3q-18 -36 -110.5 -115t-130.5 -88q39 -10 132.5 -90.5t108.5 -114.5q-1 -2 -2 -2q-39 11 -136 90t-110 113q-2 2 -2 6z" />
<glyph unicode="=" horiz-adv-x="698" d="M92 252l6 2q196 35 391 0q10 -2 0 -4q-195 -35 -391 0zM135 384l2 1q197 38 400 2q6 -2 0 -4q-200 -38 -400 0z" />
<glyph unicode="&#x3e;" horiz-adv-x="430" d="M82 106q20 36 113 115.5t131 89.5q-38 9 -132 88.5t-112 114.5q-2 4 1 3q1 0 3 -1q39 -11 136 -90t110 -113q2 -2 0 -6q-12 -33 -111 -113.5t-137 -89.5q-2 -2 -2 2z" />
<glyph unicode="?" horiz-adv-x="829" d="M82 -74q0 17 12 29t29 12t29 -12t12 -29t-12 -29t-29 -12t-29 12t-12 29zM162 51q36 174 117 333.5t198 260.5q31 24 93 71t92 72q122 104 63 175q-25 25 -53 32q-67 22 -164 -2q-100 -29 -176 -96q-87 -87 -119 -207h-2q11 133 96 230q42 44 87 69.5t106 40.5 q104 23 180 -12q36 -18 57 -47q51 -90 -51 -209q-34 -40 -168 -164q-184 -171 -352 -547q-4 -12 -4 0z" />
<glyph unicode="@" horiz-adv-x="1593" d="M158 -162q-3 93 22.5 204.5t76 226t120 226.5t159.5 210t189.5 173t216 118.5t232.5 43.5q154 0 226.5 -83t72.5 -220q0 -115 -47 -253t-116 -250.5t-154.5 -187t-156.5 -71.5q-67 0 -67 103q0 110 63 276q-4 -4 -41 -40.5t-50.5 -46.5t-44.5 -32.5t-59 -30.5t-59 -9 q-87 -2 -99 75q-13 75 48 174q65 105 162 148q44 19 88 20q13 0 41 -4q28 -10 45 -26q23 -23 29 -56q4 -31 -6 -77q21 0 38 -19.5t5 -36.5q-21 -32 -73 -166.5t-52 -191.5q0 -35 18 -35q49 -1 112 46.5t123.5 128t112 175.5t84 200t33.5 191q2 125 -61.5 198t-204.5 73 q-103 0 -210.5 -43t-201.5 -117.5t-181.5 -171t-156.5 -207t-121.5 -222.5t-81 -220t-30.5 -197q-3 -127 51 -199.5t170 -72.5q122 2 247.5 95t168.5 214q5 11 15.5 12t17.5 -6.5t3 -17.5q-47 -131 -182 -226t-266 -92q-131 1 -197 81t-71 216zM692 287q-14 -69 43 -68 q63 4 153.5 77t155.5 155q0 46 -10 69q-9 23 -28 37q-10 8 -33 12q-16 3 -29 0q-73 -12 -158 -114q-78 -92 -94 -168z" />
<glyph unicode="A" horiz-adv-x="1337" d="M0 98q18 299 188 627q87 163 201 291q118 128 254 194q78 34 143 44q31 5 66 5q39 0 84 -6q87 -21 153 -60t138 -106q7 -6 7 -7t-7 5q-76 58 -144.5 90t-152.5 42q-22 2 -44 2q-48 1 -88 -9q-60 -14 -130 -49q-120 -68 -230 -190q-95 -112 -188 -279q-166 -314 -209 -598 q-5 -40 -5 -76q0 -30 4 -58q8 -62 32 -104q26 -42 70 -48q7 -1 14 0q40 0 96 30q41 24 89 64.5t106.5 105t106.5 119.5t120 150.5t115 152.5t123.5 171t113.5 161.5t115 165.5q17 25 155 225q27 36 35.5 32t-8.5 -48q-137 -316 -350 -865q-68 -186 -90 -297q-3 -23 -3 -40 q0 -27 8 -41q12 -22 36.5 -15t62.5 37q56 48 96 92q20 22 41.5 47.5t51 63.5t48.5 62.5t61 80.5t61 82q13 13 23 6t1 -22q-149 -216 -264 -338q-53 -58 -107 -101q-51 -41 -82 -41h-4q-32 2 -45 36q-12 30 -12 84v9q0 122 59 316q107 349 304 696l-54 -78 q-95 -137 -133 -191.5t-131 -185t-142.5 -195.5t-131 -167.5t-136 -160t-117 -114.5t-112.5 -85q-60 -34 -108 -35h-3q-47 -1 -75 25q-30 26 -48 74q-18 46 -24 102q-4 38 -5 80q0 20 1 40z" />
<glyph unicode="B" horiz-adv-x="1703" d="M-137 -670q-1 56 27 114q28 60 76 119.5t112 108.5q52 44 129 86q44 384 168 750t325 647q49 68 57 68q2 0 2 -3q0 -12 -36 -83q-173 -355 -291.5 -684.5t-189.5 -675.5q54 28 71 35q58 136 118 266.5t141 293t159.5 301.5t169 275t174 231.5t170.5 153.5q84 56 157 56h5 q59 -2 95 -40t38 -93q0 -6 1 -12q0 -50 -19 -105q-28 -68 -74 -121.5t-115 -112.5q-169 -130 -426 -223q22 1 43 1q174 0 299 -52q65 -30 111 -76t67 -102q27 -63 31 -127q1 -18 1 -35q0 -47 -9 -96q-9 -46 -14 -62q170 80 276 211q15 17 24.5 9.5t0.5 -25.5 q-109 -145 -312 -232q-26 -87 -84 -190q-94 -165 -210 -290.5t-275 -242.5q-70 -47 -179.5 -99.5t-257.5 -96.5t-265 -45q-101 0 -168 26q-66 26 -94 70t-29 102zM-104 -664q0 -4 -1 -9q0 -47 22 -85q23 -40 85.5 -65t159.5 -25q84 0 183 27t188.5 70t161 85.5t126.5 83.5 q149 118 259 241t202 280q42 78 61 124q-138 -50 -469 -122q-198 -44 -319 -76q-120 -30 -221 -76q-60 -141 -119 -291q-13 -30 -20 -35.5t-8.5 5t-0.5 32.5q0 44 4 68q3 65 13 153q-71 -42 -107 -71q-55 -44 -99 -97.5t-71.5 -109t-29.5 -107.5zM197 -465q43 106 98 238 l-62 -33q-5 -25 -36 -205zM352 -170q100 42 195 64q73 19 321 75q342 75 490 131q21 57 31 107q11 54 11 103q0 67 -20 124q-14 44 -53 92q-41 47 -94 74q-125 67 -336 78l-2 2q262 144 405 264q64 54 108.5 103t76.5 108q26 55 26 102q0 43 -25 71q-26 30 -77 30 q-72 0 -156 -55.5t-163.5 -146t-166.5 -220.5t-161.5 -263t-153.5 -291t-138 -286.5t-118 -265.5z" />
<glyph unicode="C" horiz-adv-x="1228" d="M3 -148q-4 41 -4 82q0 50 6 102q10 92 31 190.5t42.5 171.5t44.5 134q78 198 169.5 359.5t217.5 316.5q52 61 101 109t113 99t135 80t140 30h5q66 0 112 -26q48 -26 72 -70q22 -46 32 -102q6 -34 6 -68q0 -24 -2 -48q-6 -60 -21.5 -115.5t-37.5 -99.5q-12 -26 -53 -94 q-4 -5 -5 -4.5t1 6.5q18 45 35 101q12 43 20.5 89.5t14.5 104.5q2 25 2 49q0 31 -4 59q-7 50 -24.5 93.5t-57.5 70t-97 27.5h-4q-61 -1 -125 -29q-66 -30 -126 -83.5t-102.5 -101t-88.5 -107.5q-211 -290 -365 -670q-16 -42 -31.5 -89t-35.5 -116t-35 -135.5t-25 -141 t-11 -139.5q0 -5 -1 -10q1 -59 13 -115q12 -60 38 -103t74 -69q46 -25 110 -24h5q123 0 276 94q156 94 318 264q92 97 202 230q139 170 154 190q17 15 26.5 9t-1.5 -25q-38 -51 -156 -195q-99 -120 -205 -229q-159 -171 -321 -271q-169 -100 -291 -100q-94 1 -157.5 44.5 t-92 113t-36.5 161.5z" />
<glyph unicode="D" horiz-adv-x="1847" d="M-97 -232q31 110 141 183q113 74 263 74h12q42 329 153 655t273 580q30 45 36.5 41t-17.5 -52q-242 -516 -395 -1226q12 -3 24 -3q200 578 412 922q239 395 469 457q50 13 96 13q96 0 170 -57q110 -84 143 -257q12 -76 11 -151q0 -89 -16 -177q-31 -162 -105 -348 q-78 -180 -171 -320.5t-222 -267.5q149 5 308 120t365 390q17 17 26 9.5t-1 -25.5q-114 -155 -215.5 -261t-191 -164t-166.5 -81q-71 -21 -145 -21h-13q-2 -2 -23.5 -21.5t-33.5 -29.5q-362 -303 -795 -303q-250 0 -351 119q-51 60 -51 134q0 33 10 68zM-74 -284v-9 q0 -101 91 -165q97 -68 271 -68h5q406 3 758 319q15 15 18 17q-98 16 -258 75q-87 30 -126.5 43.5t-119.5 33t-151 26.5q-51 -155 -88 -283q-13 -45 -21 -55.5t-10.5 6t-1.5 53.5q3 132 22 285h-10q-174 0 -285 -98q-89 -79 -94 -180zM324 -201q25 92 61 193h-23 q-9 -39 -38 -193zM424 16q72 -8 148.5 -26.5t125 -34t123.5 -41.5q179 -65 275 -76q133 132 229.5 277t183.5 334q74 177 110 331q26 114 26 230q0 42 -3 84q-21 160 -113 238q-60 52 -148 52q-46 0 -99 -14q-219 -58 -453 -442q-214 -354 -405 -912z" />
<glyph unicode="E" horiz-adv-x="1439" d="M10 -256q24 129 88 270q75 157 166 280.5t221 242.5q167 144 320 208h-27q-77 3 -129 31q-43 26 -59 71q-10 29 -10 61q0 18 3 38q9 54 23.5 96t36.5 86q58 116 164 228q111 111 242 178q142 69 282 72q57 -3 94 -17q37 -11 70 -37q29 -29 41 -59q13 -30 16 -68 q0 -6 1 -12q0 -67 -33 -135q-36 -76 -90 -133q-7 -7 -8 -6t5 10q43 67 68 137q15 57 15 100q0 19 -3 35q-3 29 -16 52q-11 18 -31 36q-27 18 -53 23q-27 8 -76 8q-122 -5 -252 -67q-114 -58 -231 -160q-103 -93 -174 -201q-25 -38 -42 -75t-28 -83q-5 -19 -4 -37 q0 -25 8 -49q15 -40 58 -65q46 -27 112 -27q9 0 18 -1q46 0 103 13q23 3 105 25q34 10 37 -4q3 -12 -21 -22q-5 -2 -10 -3q-21 -6 -56.5 -14.5t-61 -17t-52.5 -23.5q-140 -70 -314 -233q-119 -121 -205 -240.5t-161 -269.5q-58 -120 -92 -254q-16 -84 -15 -148q0 -35 4 -65 q16 -79 61 -128t107 -64q40 -10 83 -10q24 -1 50 3q70 8 142 41q211 91 477 381q93 100 182 213t185 245.5t104 143.5q15 15 25 9t0 -25q-21 -27 -108 -148.5t-180 -240t-186 -218.5q-278 -299 -493 -391q-72 -30 -148 -36q-20 -2 -38 -2q-56 0 -108 14q-70 18 -123.5 70 t-74.5 132q-13 54 -13 119q0 55 9 117z" />
<glyph unicode="F" horiz-adv-x="1052" d="M0 -791q8 147 53 312q77 273 266 686q-89 -17 -174 -68q-21 -13 -2 2q87 76 197 109q32 69 91 192.5t107 226.5t87 195q36 91 45 125q-161 32 -271 32q-20 0 -39 -1q-99 -8 -180 -55q-69 -41 -121 -99q-32 -35 -33.5 -33.5t27.5 41.5q46 61 113 111q83 57 190 74 q34 3 74 3q109 0 254 -26l25 -4l61 -12q86 -16 139 -23q46 -6 107 -6h18q72 1 140 17q104 31 190 100q59 49 101.5 101t84.5 122q3 5 4 5t-2 -5q-76 -152 -168 -244q-90 -82 -198 -118q-73 -21 -147 -25q-26 -1 -50 -1q-43 1 -81 5q-58 6 -148 23l-62 12q-7 -40 -36 -133 q-74 -226 -240 -584q37 4 85 4t107 -4q69 -4 117.5 -4t75.5 4q42 5 82 29q37 22 63 51q13 17 14 15.5t-10 -19.5q-22 -39 -53 -66q-39 -31 -86 -45q-57 -16 -144 -16q-29 0 -61 2q-111 3 -168 3q-28 0 -43 -1l-8 -20q-71 -156 -107 -237t-90.5 -213t-93.5 -243 q-55 -171 -75 -299q-4 -47 -4 -86q0 -56 8 -98q6 -28 3.5 -29t-11.5 27q-23 72 -23 166v22z" />
<glyph unicode="G" horiz-adv-x="1593" d="M2 367q37 281 293 571q67 74 128.5 126t139.5 97q149 87 297 92q80 0 148 -24q79 -34 131 -84q72 -72 115.5 -157.5t80.5 -203.5q1 -4 0 -4t-4 4q-43 110 -92 189t-125 141q-63 51 -123 68q-53 16 -111 16h-18q-72 -6 -133 -28t-133 -64q-122 -74 -252 -211 q-246 -280 -299 -533q-6 -38 -6 -71q0 -39 9 -70q15 -57 56 -84.5t96 -36.5q28 -4 60 -4q31 0 66 4q104 13 244 78t263.5 144.5t258.5 181.5t209.5 164.5t136.5 117.5l30 27q22 39 41 39q6 -1 7 -10t-7 -24.5t-24 -29.5l-15 -14q-58 -147 -215 -616q100 71 146 100 q15 7 24.5 4.5t7.5 -12t-16 -17.5q-88 -57 -178 -122q-77 -225 -141 -375q-75 -170 -147 -299.5t-169 -247.5q-28 -33 -65.5 -70.5t-91.5 -83t-114 -75t-110 -29.5q-64 0 -91 39q-21 29 -21 74q0 14 2 30q12 78 76 191q96 175 298 391t500 438q185 486 287 664 q-71 -61 -143 -120.5t-210.5 -163.5t-260 -181t-262.5 -142.5t-246 -78.5q-38 -4 -72 -4q-123 0 -188 60q-70 67 -70 194q0 22 2 45zM322 -930q-4 -19 -4 -34q0 -74 83 -74h3q42 0 94 28q54 29 103 73.5t85.5 83t61.5 71.5q83 118 149 246t139 298q39 90 111 281 q-281 -213 -472 -419.5t-284 -373.5q-60 -111 -69 -180z" />
<glyph unicode="H" horiz-adv-x="1853" d="M0 -190q0 95 36.5 195.5t110.5 187.5q42 49 96.5 87t102.5 60.5t123 43.5t122 30.5t136 25.5q160 34 174 37l2 4q87 174 180 402t131 379q14 72 14 125q0 57 -18 89t-43 48q-24 16 -59 16h-2q-36 0 -75 -10.5t-82.5 -31t-83.5 -44t-79 -51.5q-176 -134 -301 -318 t-137 -344q0 -85 31 -143q40 -69 119 -109q3 -3 2.5 -3t-4.5 1q-85 34 -134 99q-44 64 -47 155q0 99 32.5 187t94.5 186q70 101 146 177.5t176 144.5q52 33 102.5 58.5t105.5 43.5q54 20 98 22h15q37 0 71 -10q40 -12 63.5 -49t34.5 -97q5 -26 5 -58q0 -41 -8 -93 q-23 -144 -103.5 -363.5t-162.5 -391.5q272 72 453 233q89 206 194 385q21 39 57 99t88 128t76 68q9 -4 9.5 -19.5t-11 -49.5t-24 -64.5t-27.5 -64.5t-22.5 -50.5t-10.5 -21.5q-109 -227 -241 -365l-109 -264q-141 -369 -192 -573q-21 -104 -21 -161q0 -18 2 -31 q10 -54 51 -54q16 0 37 8q57 24 191 168q124 137 379 475q15 18 24.5 11.5t-2.5 -27.5q-211 -293 -379 -480q-135 -148 -209 -178q-22 -8 -40 -8q-79 0 -79 157q0 54 9 126q34 244 168 592l55 133q-181 -143 -442 -207l-4 -12q-189 -374 -404 -637q-102 -126 -161 -181 q-118 -110 -210 -110q-55 0 -100 39q-43 40 -67 104q-23 67 -23 144zM29 -190q0 -73 22 -134q20 -55 60 -92q35 -30 73 -36q9 -1 18 -1q28 0 56 13q36 17 70.5 43.5t67.5 65t58.5 72.5t50.5 69q14 21 21 30q189 273 359 602q-23 -5 -48.5 -10t-57 -11t-48.5 -9 q-85 -16 -132 -25.5t-119 -30t-118.5 -43t-99 -59t-92.5 -82.5q-70 -82 -104.5 -176t-36.5 -186zM1565 866q102 126 176 287q1 2 13.5 26.5t28 56t30.5 63.5t22.5 53.5t1.5 21.5q-11 0 -51 -63q-40 -64 -74.5 -127.5t-44.5 -85.5q-47 -103 -102 -232z" />
<glyph unicode="I" horiz-adv-x="946" d="M-207 -559q84 91 222 163t276 95q223 351 425.5 764t297.5 751q20 79 20 130q0 42 -14 64q-19 29 -55 29q-22 0 -49 -11q-73 -29 -164 -119q-138 -146 -252 -328q-130 -212 -197 -414q-23 -79 -34.5 -139t-14.5 -134q0 -12 -1 -24q0 -61 13 -118q2 -6 0.5 -6t-4.5 6 q-38 108 -40 214v11q0 101 26 205q58 225 194 436q126 192 283 321q90 72 158 103q50 23 88 23q14 0 26 -3q47 -11 61 -74q7 -29 6 -69q0 -47 -9 -111q-31 -201 -154 -497t-285.5 -572t-306.5 -436q44 6 84 6q148 0 232 -80v-2q-80 28 -180 28q-41 -1 -83 -5 q-150 -16 -307.5 -73.5t-261.5 -135.5v2z" />
<glyph unicode="J" horiz-adv-x="1083" d="M2 930q-2 18 -2 46t2 66q0 8 1 8l1 -6q3 -58 14 -112q8 -37 29 -74q20 -24 41 -33q19 -9 49 -6q51 8 137 62q92 62 172 133q55 47 114.5 101t133 121t113.5 103q83 76 145 121q68 48 90 48q4 0 6 -2q7 -4 7 -24q0 -29 -13 -89q-20 -109 -75 -291q-112 -375 -310 -873 q-90 -222 -100 -247q16 7 41 14q59 20 93.5 33t93 42.5t102.5 62.5t100 87t107 123q19 19 27 13t-5 -29q-52 -71 -109.5 -128t-102.5 -91t-105.5 -64t-95.5 -43.5t-97 -34.5q-32 -10 -63 -22q-22 -53 -32.5 -78t-52.5 -122.5t-72.5 -163.5t-77.5 -168t-84 -171.5t-76 -138 t-69.5 -103t-49.5 -34.5q-23 2 -23 61q0 45 14 125q22 118 67.5 261t102.5 257q57 113 125 176t156 103l123 307l338 858q2 5 8 22.5t14 40t18.5 51.5t20 58t18.5 59t16 56t10.5 46t2.5 32t-8 12q-19 0 -139 -113q-121 -115 -256 -249.5t-158 -153.5q-101 -84 -180 -133 q-94 -54 -160 -58q-35 0 -65 13q-29 15 -47 49q-19 40 -25 84zM36.5 -985.5q2.5 -13.5 8.5 -13.5q12 0 39 44t62 120t72.5 162t78 185t70 173.5t57 143t31.5 79.5q-72 -37 -130.5 -95t-107.5 -155q-56 -115 -101.5 -256t-66.5 -256q-9 -51 -12 -84.5t-0.5 -47z" />
<glyph unicode="K" horiz-adv-x="1628" d="M0 741q0 99 33 187.5t96 185.5q67 99 143.5 176t176.5 146q97 61 177 94q80 34 148 36h10q61 0 101 -30q43 -34 62 -112q12 -48 11 -112q0 -40 -4 -87q-34 -298 -190 -729q-7 -20 -47 -123q137 170 286.5 320t372.5 354q214 193 324 315q54 59 104 137q38 63 51 123 q0 3 1 4q1 0 2 -4q-8 -67 -41 -131q-36 -73 -95 -148q-104 -134 -311 -331q-34 -31 -172 -159t-193.5 -180.5t-154.5 -150t-178 -182.5h14q65 0 113 -25q51 -32 73 -88q13 -39 15 -87q0 -12 1 -23q1 -33 -3 -57q-4 -32 -15 -89q-4 -19 -15 -66q-7 -27 -10.5 -41t-9 -40.5 t-7 -41.5t-3.5 -38t1.5 -36t8 -29t15 -24t24.5 -14.5t35 -5.5t47 7q60 14 133.5 74.5t149 151.5t136.5 172.5t128 177.5t90 126q17 17 26.5 9.5t-1.5 -25.5q-23 -30 -92 -128.5t-131.5 -181t-141 -176t-155.5 -155.5t-140 -76q-27 -6 -50 -6q-116 0 -116 157q0 60 25 200 q3 12 4 20q8 42 11 60.5t7 53.5t2 63.5t-8 55.5q-10 45 -49 78q-45 33 -116 43l-11 -12q-126 -305 -254 -545q-81 -151 -137 -232q-65 -96 -80 -96q-5 0 -6.5 9.5t1.5 31.5t11 57q34 155 113 301q79 158 221 328q51 128 131 342q161 443 215 709q13 74 13 130q0 33 -4 60 q-12 72 -49 104q-31 27 -79 27h-18q-60 -6 -136.5 -43t-168.5 -104q-176 -134 -301 -318q-123 -180 -135 -344v-13q0 -75 31 -130q40 -70 114 -109q6 -3 6 -4t-6 2q-84 34 -133 99q-44 68 -47 155zM240 -522q6 1 24 28t29 50q57 108 115 241q103 241 143 344 q-102 -162 -176 -307q-66 -129 -123 -289q-16 -47 -16 -61q0 -6 3 -6h1z" />
<glyph unicode="L" horiz-adv-x="1556" d="M2 -289q14 92 111 187q136 134 341 170q65 12 133 12q62 0 126 -10q140 167 309 411q-138 -91 -283 -143q-85 -26 -149 -32q-17 -1 -35 -2q-51 0 -117 11q-82 21 -139 59t-117 105q-5 5 -4.5 5.5t6.5 -5.5q61 -59 119 -91.5t139 -49.5q34 -5 70 -5q104 0 215 40 q188 75 377 229l18 27q56 83 205.5 310.5t233.5 350.5q93 137 157 213q73 91 109 94q24 0 24 -41q-2 -75 -61.5 -193t-146 -237t-166 -215.5t-140.5 -160.5q-47 -47 -137 -129l-20 -31q-220 -330 -400 -535q72 -14 146 -47q52 -22 148 -71t143 -70q69 -31 129 -41 q19 -2 37 -2q49 0 92 12q71 22 145 84q87 73 170 182v-2h2q-77 -125 -152 -202q-81 -75 -151 -101q-59 -20 -115 -20q-17 0 -35 2q-59 7 -143 41q-54 25 -150 79t-137 74q-66 35 -149 58l-111 -117q-144 -140 -280 -223q-165 -95 -262 -95q-30 0 -54 9q-53 21 -53 82 q0 11 2 24zM46 -357q19 -33 65 -32q36 0 87 19q68 26 156 85q109 78 258 234l82 98q-69 13 -135 13q-171 0 -315 -90q-122 -76 -180 -185q-30 -57 -30 -97q0 -26 12 -45zM1300 780l5 2q248 254 430 535q102 170 102 242q0 20 -14 20q-54 -2 -225 -298q-5 -8 -7 -11 q-127 -225 -291 -490z" />
<glyph unicode="M" horiz-adv-x="1773" d="M0 -289q10 19 14 25q22 139 266 716.5t392 876.5q12 22 20.5 19t-0.5 -29q-61 -191 -223.5 -598t-296.5 -707q367 627 627 1020q214 322 334 436q48 48 73 48q41 0 41 -60q-4 -150 -242 -724q-7 -16 -10 -23q-19 -49 -119.5 -278.5t-156.5 -348.5q28 40 158 240 q2 2 43.5 66.5t68 104.5t81 121t96.5 137.5t98 132.5t101 128t91.5 100.5t84.5 73.5t65 26h4q43 0 43 -59q-1 -35 -19.5 -102t-42 -132.5t-62 -162t-61.5 -151t-61 -142t-41 -94.5q-179 -407 -236 -549q-47 -128 -47 -184q0 -45 29 -46l1 1q25 2 65 28q65 42 170.5 162 t167.5 202t177 241q17 23 25 34q6 8 29 39.5t33 44.5q14 14 24 8t0 -24q-43 -60 -61 -84q-60 -82 -86 -118t-89 -120.5t-103.5 -133t-94.5 -111.5t-99 -104t-83 -65q-50 -32 -80 -32q-50 0 -50 84q0 64 36 190q54 206 206 565q113 255 252 551q1 3 9 19q69 156 69 204 q0 21 -14 21q-23 0 -62 -28q-37 -26 -82 -74t-90.5 -102.5t-99 -126.5t-97 -132.5t-94 -135.5t-80.5 -120.5t-67 -102t-43 -65.5q-160 -246 -201 -299q-17 -23 -27 -18.5t-3 37.5q25 108 278 702q170 408 219 535q1 2 7.5 20t13.5 37t15.5 44.5t13.5 47.5t8 41t-1 29.5 t-14 9.5q-21 -3 -61 -43q-110 -107 -324 -432q-208 -313 -453.5 -726t-344.5 -595l-13 8h-2z" />
<glyph unicode="N" horiz-adv-x="1376" d="M20 -236q61 193 267.5 647t337.5 701q12 23 21 34.5t13 10t1.5 -16.5t-11.5 -40q-64 -183 -200.5 -508t-255.5 -572q68 112 131.5 213t153.5 238t169 249.5t169 229.5t163.5 196.5t143 130.5t116.5 52q31 0 43 -24t10 -56q-1 -48 -22 -126t-44.5 -145.5t-69.5 -176.5 t-68.5 -158t-72 -155.5t-50.5 -108.5q-50 -105 -153 -314t-153 -313q-55 -126 -66 -161q-14 -44 -14 -68q0 -32 24 -33q12 0 31 9q17 8 38 22q44 28 99.5 79.5t117.5 121t117 134.5t120.5 150t104 135.5t91.5 122t60 80.5q14 15 24.5 9.5t0.5 -25.5q-10 -14 -74.5 -99.5 t-113.5 -150.5t-129.5 -165t-145 -173t-137 -142.5t-125.5 -103.5q-50 -33 -80 -33q-40 0 -39 61v7q2 69 62 238q87 244 276 643q39 82 142 295t157 331q3 7 11.5 27t15 35t15.5 37.5t14.5 40t11 38t6 35t-1.5 27t-10 18.5t-21 6q-53 0 -136 -69.5t-175.5 -181t-197 -256 t-200 -290t-184.5 -288.5t-151 -246t-100 -167q-3 -6 -5 -9l-35 -57q-41 -70 -53 -70q-5 0 -5 12q0 21 21 86z" />
<glyph unicode="O" horiz-adv-x="1380" d="M2 56q-1 27 -1 53q-1 74 9 141q12 91 41 201q49 163 116 290.5t171 243.5q57 126 156 252q52 60 102.5 102.5t116.5 79.5q87 43 171 61q44 9 89 9q41 0 83 -7q88 -16 154 -75q47 -44 72 -95.5t41 -123.5q13 -94 15 -170v-14q0 -70 -14 -152q-15 -90 -35 -165t-50 -165 q-65 -180 -145.5 -326.5t-192.5 -281.5q77 30 148 80q156 108 337 350q21 21 29.5 14t-4.5 -30q-182 -245 -346 -359q-102 -67 -201 -100q-131 -141 -250 -211q-132 -74 -248 -78h-15q-107 0 -189 65q-88 69 -129 208q-27 99 -31 203zM60 56l-2 -30q0 -86 18 -161 q32 -133 112 -201q75 -63 172 -64h16q108 6 222 83q100 71 180 163q-44 -8 -87 -8q-102 0 -191 44q-127 62 -207 224q-41 92 -57 188q-14 84 -14 161v23q2 88 20 196q14 67 26 110q-82 -143 -149 -352q-28 -106 -41.5 -189t-17.5 -187zM271 390q6 -142 55 -269 q72 -167 200 -223q75 -33 159 -33q59 0 122 16l16 21q215 279 351 645q64 177 92 329q18 98 18 195q0 55 -6 109q-19 129 -86 209q-61 61 -146 77q-40 8 -78 7q-44 0 -86 -10q-80 -19 -157 -64q-108 -68 -201 -187q-45 -59 -88 -135q81 66 180 103q88 30 179 30q47 0 94 -8 q15 -3 14.5 -4.5t-14.5 0.5q-17 1 -33 1q-115 0 -227 -48q-114 -57 -221 -170q-29 -34 -41 -51q-44 -108 -76 -264q-21 -109 -21 -223q0 -26 1 -53z" />
<glyph unicode="P" horiz-adv-x="1658" d="M0 -889q0 96 12 195q20 257 92 585q78 339 177 617t249 514q30 49 38 49q2 0 2 -3q0 -11 -23 -58q-118 -243 -204 -512.5t-173 -620.5q-61 -253 -119 -541q70 277 194.5 614.5t270.5 618.5q33 62 61.5 113t74 123.5t88 129t99 117t111.5 101.5t121 68.5t131 29.5h18 q200 0 278 -155q43 -85 43 -198q0 -79 -21 -171q-51 -223 -196 -406q-106 -134 -237 -206q52 -19 97 -29q29 -6 66 -7q19 0 40 2q61 5 117.5 30.5t124.5 84t135 148.5q14 14 24 7.5t1 -23.5q-54 -72 -108.5 -125.5t-102.5 -85t-98 -48.5q-49 -17 -91 -21q-16 -2 -33 -2 q-27 0 -54 4q-45 6 -79 17.5t-73 28.5q-177 -86 -380 -86h-14q-180 4 -182 70q0 17 15 41q21 35 67 57q49 24 110 34q30 5 66.5 5.5t78.5 -5.5q84 -10 163 -48q5 -1 27 -10l30 -17q171 100 296 310q122 205 142 408q3 34 3 64q0 160 -87 241q-69 63 -186 63 q-62 0 -125 -26.5t-115.5 -66t-107.5 -101t-95.5 -116t-85.5 -128t-71 -121t-59 -109.5q-184 -352 -328.5 -777.5t-181.5 -672.5q-11 -85 -22 -85h-1q-10 5 -10 91zM508 82q0 -49 131 -49h20q184 3 342 88l-12 6l-24 10q-76 37 -154 47q-41 6 -76 5q-32 -1 -60 -5 q-58 -10 -102 -32q-37 -18 -57 -46q-8 -13 -8 -24z" />
<glyph unicode="Q" horiz-adv-x="1476" d="M0 362q1 123 42 242t114 254q88 149 180.5 263t216.5 218q65 52 137.5 95t150.5 72.5t153 43.5q42 7 82 7q33 0 64 -5q70 -11 127 -45.5t99 -104t59 -169.5q10 -72 10 -144q0 -101 -19 -201q-34 -172 -111 -370q-80 -197 -178.5 -360t-231.5 -318q83 -50 235 -164 q69 -51 97 -70.5t84.5 -55.5t105.5 -56t105 -33q41 -7 81 -7q72 0 142 22q134 42 272 145q5 3 5 2t-5 -4q-130 -115 -264 -170q-84 -29 -169 -29q-34 0 -68 5q-60 11 -113.5 30.5t-110 53t-90.5 57t-100 72.5q-186 132 -240 165q-132 -138 -268 -223q-85 -50 -169 -73 q-67 -18 -129 -18q-16 0 -32 1q-77 6 -135.5 58.5t-83.5 148.5q-16 59 -16 126q0 15 1 31q4 84 19.5 151.5t44.5 150.5q-22 15 -35 30q-26 28 -45 78q-14 49 -14 98zM47 362q3 -52 12 -83q12 -38 33 -64l19 -16q62 151 140 268.5t195 232.5q127 116 249.5 181.5t277.5 87.5 q12 1 12.5 1t-10.5 -5q-148 -41 -260 -113.5t-228 -192.5q-196 -216 -317 -491q26 -7 66 -10q83 0 157 35q81 41 139 102q66 70 105.5 143t62.5 166q2 9 3 9t-1 -9q-28 -179 -151 -325q-71 -77 -143 -115q-77 -42 -172 -45q-46 0 -80 10q-48 -123 -64 -221q149 58 303 69 q19 1 37 1q131 0 248 -37q91 -33 168 -74q235 301 393 676q75 194 113 357q28 125 28 252q0 38 -2 75q-13 112 -58 184.5t-110 100.5t-144 28h-2q-81 -1 -166.5 -31.5t-168.5 -80t-156 -113.5q-117 -108 -205.5 -222t-170.5 -259q-69 -128 -109 -242.5t-43 -229.5zM86 -295 q16 -93 68 -143t122 -54q10 -1 20 -1q62 0 129 22q78 25 153 76q120 87 239 225q-53 32 -149 72q-135 46 -273 49q-149 -3 -305 -49q-9 -56 -9 -112q0 -43 5 -85z" />
<glyph unicode="R" horiz-adv-x="1323" d="M0 -424q26 468 167.5 951.5t371.5 895.5q9 15 13 19q2 3 2 0q0 -5 -9 -25q-81 -184 -150 -382t-133 -434.5t-100.5 -387t-100.5 -428.5q237 740 502 1216q29 53 56 97.5t68.5 106t80.5 110t89.5 99.5t99.5 85t107 56t114 22h7q73 0 130 -39q60 -41 88 -123 q18 -59 18 -130q0 -25 -2 -52q-14 -109 -61 -215q-58 -128 -135.5 -222t-192.5 -180q-132 -89 -257 -129t-281 -41v-4q1 -16 22 -92q22 -63 53 -121t74.5 -114t102 -90t122.5 -35q108 0 221 88q103 80 242 266q15 15 24.5 8t0.5 -24q-156 -204 -248 -273q-122 -93 -246 -96 q-57 0 -111 23t-96 60t-78.5 87.5t-62.5 100.5t-45 104q-21 72 -23 84q-4 30 1.5 34.5t37.5 6.5q247 8 510 207q102 86 174 175t131 206q48 103 66 194q7 48 7 88.5t-7 73.5q-20 74 -68.5 110.5t-115.5 36.5q-62 0 -125 -27.5t-120 -77.5t-106 -103.5t-97 -124t-79 -120.5 t-65 -110q-174 -313 -323.5 -711t-235.5 -704q-12 -50 -21 -49t-8 53z" />
<glyph unicode="S" horiz-adv-x="1896" d="M4 -125q-4 37 -4 75q0 100 25 206q45 164 124 287.5t209 238.5q153 123 307 175.5t355 55.5q115 -5 244 -65q134 -67 213 -160q184 211 370 412q23 68 51.5 132.5t79 139.5t103.5 109q52 30 82 30q40 0 25 -42q-9 -25 -36 -60q-22 -27 -53 -62t-59 -65.5t-33 -36.5 l-96 -112l-8 -11q-23 -75 -43.5 -158.5t-46.5 -196t-37 -159.5q-54 -202 -114 -353.5t-160.5 -306t-237.5 -284.5q-149 -135 -328 -207q-166 -61 -338 -61h-16q-13 -23 -58 -98q-214 -403 -219 -654q0 -43 -5 -43t-5 43v17q0 256 197 653l45 84q-138 11 -253.5 67.5 t-191.5 163.5q-68 106 -88 246zM45 -121q15 -131 76 -233q71 -109 181.5 -166.5t242.5 -65.5q125 226 273.5 438t348.5 465q142 176 310 369q-88 88 -220 145q-134 52 -237 52q-192 -9 -338 -64t-293 -174q-123 -110 -198 -227.5t-119 -272.5q-28 -108 -29 -217q1 -24 2 -49 zM592 -588q170 0 334 74q158 77 301 217q182 192 290.5 408.5t194.5 513.5q73 281 113 407q-381 -444 -619 -745q-195 -249 -342 -455t-272 -420zM1919 1176l76 84q90 90 145 159q36 44 36 63q0 9 -8 12q-3 1 -7 1q-24 0 -72 -33q-54 -43 -99.5 -125.5t-70.5 -160.5z" />
<glyph unicode="T" horiz-adv-x="1071" d="M-186 1253q3 20 10 20t6 -22q-3 -35 13 -60.5t49.5 -39.5t76.5 -21q32 -5 72 -5q14 1 29 1q58 2 116.5 7.5t129.5 18.5t132 25t132.5 29.5t124 31.5l112.5 30l25 106q12 72 12 128q0 23 -2 44q-4 32 -2.5 32.5t10.5 -30.5q12 -49 12 -108q0 -33 -4 -70q-3 -45 -12 -92 l145 41q16 4 71 17q443 112 692 121q26 1 51 1q368 0 368 -219v-7q-1 -25 -6 -52q-2 -9 -5 -12t-4.5 1t-0.5 13q2 17 2 33q0 147 -209 175q-47 6 -105 6q-249 0 -707 -114q-119 -30 -134 -33l-172 -43q-8 -41 -35 -133q-73 -247 -258 -680q-8 -18 -47 -108.5t-53.5 -126 t-43 -107t-48 -128.5t-35.5 -113q-10 -40 -15 -78q-3 -21 -3 -42q0 -17 2 -34q4 -38 19 -60.5t50 -22.5t86 30q118 70 287 282q82 100 203.5 275t127.5 184q15 14 25 8t0 -24q-3 -5 -127 -182t-207 -279q-179 -222 -297 -291q-48 -28 -84.5 -32t-58 12t-35 44t-16.5 66 q-2 23 -2 46q0 14 1 30q2 38 9 76q17 95 53.5 211.5t63.5 187.5t81 203q29 69 88 209t104 250.5t83 210.5q3 10 16 48t19 58q-77 -17 -148.5 -31.5t-162.5 -30.5t-170 -24q-78 -10 -160 -14q-31 -2 -58 -1q-46 1 -85 5q-62 8 -111 24q-48 14 -70 48q-17 26 -18 59q0 11 2 22 z" />
<glyph unicode="U" horiz-adv-x="1501" d="M0 766q0 99 33 187.5t96 185.5q66 99 142 175t178 146q169 106 281 121q17 2 32 2q87 1 122 -71q19 -38 19 -98q0 -74 -29 -183q-24 -92 -63 -203t-64 -172t-81 -197q-4 -10 -16 -38q-141 -338 -153 -507q-1 -18 -1 -34q0 -165 131 -168h4q35 0 75 15q42 16 84.5 51 t75.5 65t75 81.5t59.5 73.5t50.5 66q125 167 260 398q61 101 162.5 297t152.5 284q22 36 29 35q8 -1 -10 -47q-51 -144 -163.5 -414t-146.5 -358q-107 -283 -157 -469q-27 -117 -31 -180q0 -20 4 -70q8 -32 4 -34t-14 30q-12 39 -15 74q-2 19 -2 42q0 58 11 146 q32 203 135 485l63 158q-135 -227 -258 -393q-37 -50 -65.5 -87t-80.5 -94.5t-97 -94t-101 -64.5q-54 -27 -103 -27h-3q-49 1 -84 19t-53 52t-28 75q-7 29 -7 65q0 14 1 30q4 54 10.5 104.5t23 111.5t29 106.5t32 99.5t30 81.5t23.5 60.5q9 23 99 234t130 323q40 123 40 198 q1 37 -9 63q-23 62 -94 62q-18 0 -39 -4q-103 -20 -258 -132q-176 -137 -301 -318q-123 -186 -135 -346v-13q0 -73 31 -130q38 -67 114 -107q6 -4 6 -4.5t-8 2.5q-86 36 -131 98q-44 65 -47 154z" />
<glyph unicode="V" horiz-adv-x="1376" d="M-1 706q0 49 9.5 96.5t23 88t34.5 88.5q50 101 110.5 177t147.5 144q168 121 288 121q102 1 154 -85q43 -72 43 -201q0 -25 -2 -52q-12 -163 -49.5 -326t-100.5 -372q-31 -101 -67.5 -212t-83.5 -251t-70 -211q-44 -156 -53 -217q-1 -7 -1 -14q0 -58 40 -58q27 0 64 23 t67 51q75 73 168 199q176 258 362 622q186 376 308 711q32 98 50 158.5t38 152t26 166.5q3 43 8 39q4 -3 5 -41q1 -17 1 -35q0 -177 -81 -456q-100 -342 -293 -725q-191 -370 -391 -617q-99 -121 -187 -188q-103 -78 -149 -78q-53 3 -53 90q0 18 2 39t3.5 36t6.5 40 t7.5 35.5t9 39.5t7.5 35q10 48 21.5 96.5t26 103t25 93.5t29.5 102.5t27.5 92.5t31 101.5t28.5 94.5q133 439 174 684q7 53 7 98q0 83 -24 137q-37 84 -122 83q-110 0 -275 -137q-146 -132 -237 -318q-43 -91 -61 -172q-12 -51 -11 -106q0 -33 4 -66q12 -83 59 -143 q50 -68 140 -109q3 -3 2.5 -3.5t-4.5 1.5q-92 35 -154 99q-57 68 -78 155q-11 51 -11 100z" />
<glyph unicode="W" horiz-adv-x="1783" d="M0 309q4 118 32.5 236t78.5 268q109 300 241 528q129 224 223 295q15 12 16.5 10.5t-11.5 -16.5q-71 -83 -185 -311q-114 -243 -219 -528q-105 -292 -137 -484q-3 -35 -5 -71v-12q0 -30 7 -54q8 -29 23 -47.5t45.5 -18.5t72.5 23q155 85 424 481q94 270 217 514 q70 140 131 226q39 56 73 81t41 -1q1 -4 1 -10q0 -31 -33 -115q-39 -90 -104 -216q-77 -145 -215 -364q-47 -133 -103 -317q-122 -411 -131 -685q1 -146 57.5 -220t153.5 -74q85 1 171.5 45t160 114t147 168t131 195t112.5 207t90.5 192t66.5 162q146 384 211 711 q20 121 20 196q0 67 -16 96q-6 13 -4.5 15.5t10.5 -10.5q32 -45 32 -161q0 -60 -9 -140q-34 -325 -179 -732q-33 -86 -72.5 -175t-97 -197.5t-119 -205t-140 -190t-158.5 -161t-175 -109t-190 -41.5q-106 0 -171 78.5t-77 236.5q-2 35 -2 70q0 130 24 262q30 168 87 371 q4 16 28 90q-234 -330 -385 -414q-42 -24 -75 -27t-53.5 13t-34 40t-19.5 58t-7.5 63.5t-0.5 61.5zM762 852q91 151 143 250q73 139 103 211q26 64 26 81q0 6 -3 5h-2q-14 -5 -50 -68q-139 -272 -217 -479z" />
<glyph unicode="X" horiz-adv-x="1611" d="M0 -827q14 233 111 448q56 116 119.5 204.5t158.5 184.5q193 181 500 377q17 53 22 74q111 330 146 473q23 91 37 172q6 45 6 83q0 49 -10 87q-18 68 -60 95q-38 25 -89 25h-9q-58 -2 -125.5 -36t-136.5 -92q-148 -134 -238 -318q-42 -90 -60 -172q-11 -51 -12 -104 q0 -33 5 -68q12 -83 57 -143q53 -68 139 -109q5 -3 5 -3.5t-5 1.5q-91 34 -153 99q-57 68 -78 155q-12 53 -12 105q0 47 10 91q10 46 23 87.5t34 89.5q50 101 110.5 177t145.5 144q77 56 151.5 87.5t140.5 32.5h4q63 0 110 -28q48 -30 73 -104q19 -56 19 -134q0 -25 -2 -52 q-7 -105 -34 -229t-51.5 -206.5t-70.5 -222.5q29 18 84 52.5t76 48.5q151 97 261 198.5t208 237.5q93 142 139 287q32 106 35 213q2 22 5 22.5t5 -22.5q0 -99 -27 -219q-38 -149 -129 -299q-97 -145 -207.5 -251t-263.5 -208q-41 -26 -113 -71t-98 -62q-4 -12 -20 -54.5 t-33.5 -89.5t-40 -111.5t-40.5 -125.5t-34 -126q-18 -64 -24 -117q-5 -41 -5 -75q0 -10 1 -20q2 -42 19.5 -66.5t49.5 -23.5q126 2 433 342q179 202 360 440q14 16 25 10.5t-2 -26.5q-190 -256 -363 -447q-322 -354 -453 -354q-46 0 -71 32q-26 33 -30 93q-1 20 -1 41 q0 43 5 90q7 71 29.5 165.5t46.5 178t56 184.5q-261 -166 -444 -334q-95 -91 -160 -174t-123 -194q-57 -113 -87 -215t-44 -221q-1 -13 -4.5 -12.5t-1.5 12.5z" />
<glyph unicode="Y" horiz-adv-x="1759" d="M2 -715q13 72 64 146q95 136 300 253.5t511 176.5q87 15 196 43q118 190 262 479q49 103 287 690q-162 -305 -317 -508q-175 -225 -342 -317q-91 -51 -187 -51q-82 2 -136.5 51t-61.5 145q-1 13 -1 26q0 57 14 123q17 81 35 132.5t54 140.5q11 27 80.5 188t99.5 248 q29 89 29 145q0 14 -1 25q-9 60 -46 81q-23 14 -56 14q-19 0 -40 -4q-60 -12 -128 -46t-139 -86q-177 -135 -301 -317q-61 -93 -95.5 -173t-41.5 -171q0 -85 31 -146q41 -65 112 -104q9 -5 9 -6t-9 2q-84 35 -129 98q-44 64 -47 156q0 98 32.5 185.5t94.5 187.5 q70 101 146 177t176 144q80 50 153 80.5t139 38.5q14 1 27 1q48 0 80 -21q42 -28 58 -93q7 -25 7 -58q0 -52 -16 -122q-10 -45 -23 -89t-33 -98t-30.5 -81.5t-39 -96t-34.5 -83.5q-35 -84 -53.5 -132.5t-40 -126t-26.5 -139.5q-1 -86 41 -127t112 -41h9q78 0 165 49 q156 84 328 310q262 339 510 917q10 24 21.5 31t18 -5.5t1.5 -39.5q-33 -156 -203.5 -580.5t-230.5 -552.5q-125 -258 -228 -424q101 29 201 78q230 110 397 336q15 15 25 9t0 -25q-178 -234 -408 -346q-105 -51 -239 -91q-130 -212 -295 -397q-358 -391 -686 -391 q-84 0 -129 51q-36 39 -36 98q0 16 3 33zM33 -721q-3 -16 -3 -30q0 -49 32 -81q41 -42 114 -42h5q68 0 140 25q75 26 140.5 66t132 96t117 107.5t98.5 108.5q119 146 242 338q-121 -26 -170 -35q-300 -59 -500 -172.5t-291 -245.5q-48 -71 -57 -135z" />
<glyph unicode="Z" horiz-adv-x="1740" d="M0 -332q4 56 21.5 102t44 81t66 62.5t83 47t99 34.5t111 24t123 16t129.5 11.5t135 8.5h3q151 10 222.5 16t190.5 24.5t204 45.5q-12 39 -46 99q-34 54 -69.5 89.5t-89.5 69.5q-82 49 -183 72q-6 0 -34 4q-49 6 -49 14q0 9 49 17q89 15 185.5 60t180.5 108 q127 97 180 192q33 62 33 111q-1 41 -25 75q-47 64 -161 65q-13 0 -27 -1q-139 -14 -266 -106q-122 -97 -176 -238q-15 -40 -14 -22q0 8 4 26q15 82 52.5 146t104.5 122q133 112 293 115q85 0 149 -43q65 -44 81 -112q5 -21 5 -42q0 -50 -26 -106q-59 -111 -188 -205 q-173 -130 -351 -170q106 -9 199 -53q113 -56 187 -160q38 -52 59 -108q167 66 260 184q14 14 24 7.5t1 -23.5q-97 -127 -277 -197q14 -37 23 -88q8 -48 8 -100q0 -73 -15 -154q-32 -146 -96.5 -255.5t-177.5 -209.5q-74 -61 -168.5 -103.5t-194 -63t-204.5 -20.5t-201.5 20 t-182.5 62t-149.5 101t-100.5 142.5t-38 181.5v24zM29 -356q1 -120 61 -217.5t156 -157t222 -87.5q94 -21 189 -22q32 0 64 2q128 10 256 61.5t225 141.5q98 100 156 202.5t88 235.5q15 77 15 150q0 41 -5 82q-8 52 -16 78q-87 -28 -202 -46t-201 -25t-220 -15 q-88 -6 -132.5 -9t-123.5 -10.5t-121.5 -15.5t-106 -22.5t-98 -32.5t-77.5 -44t-65.5 -58t-40 -75t-21.5 -94q0 -4 -1 -11.5t-1 -10.5z" />
<glyph unicode="[" horiz-adv-x="933" d="M-147 -268q145 173 334 483.5t349.5 637.5t227.5 542q0 2 2 4q174 20 539 20q6 0 6 -0.5t-6 -1.5q-83 -13 -249 -34t-249 -33q-58 -191 -232 -529t-378 -653.5t-332 -431.5q71 13 278 41t250 28q16 0 22.5 -13.5t0 -26.5t-22.5 -13q-45 0 -271.5 -9.5t-268.5 -12.5v2z " />
<glyph unicode="\" horiz-adv-x="595" d="M111 1446q-2 16 9 24t25 4t19 -20q27 -157 104 -580.5t127 -723.5t90 -582h-2q-206 942 -372 1878z" />
<glyph unicode="]" horiz-adv-x="980" d="M-289.5 -290q-0.5 1 4.5 3q82 12 248.5 33.5t251.5 34.5q58 190 232 528t378 654t332 432q-66 -14 -275 -42t-255 -28q-11 0 -17.5 8.5t-6.5 18t6 18t18 8.5q47 0 275 9.5t267 11.5q-146 -174 -335 -484.5t-349 -637.5t-227 -543q0 -2 -4 -2q-142 -17 -537 -23 q-6 0 -6.5 1z" />
<glyph unicode="_" horiz-adv-x="657" d="M-84 -111q0 1 6 2q316 39 631 0q9 -1 9 -2t-9 -2q-316 -39 -631 0q-6 1 -6 2z" />
<glyph unicode="a" horiz-adv-x="550" d="M-24 228q-1 7 -1 15q0 60 50 131q63 90 150 110q17 4 34 5q39 0 67 -22q24 -24 24 -61q0 -20 -7 -44q18 0 31 -15t4 -28q-25 -37 -71 -169q-27 -77 -27 -108q0 -23 14 -24h1q37 0 151 128q114 129 161 198q7 7 15.5 6t11 -8t-1.5 -14q-32 -47 -88.5 -116t-132 -140 t-113.5 -72q-20 0 -30.5 17.5t-10.5 46.5t4 62t12.5 67t16 58t12.5 38q-6 -5 -27.5 -26.5t-30.5 -29.5t-29 -24.5t-34.5 -23.5t-35 -14t-40.5 -7h-2q-69 0 -77 64zM13 225q0 -4 -1 -7q0 -34 34 -34h3q50 3 121 59t121 119q0 66 -31 87q-30 13 -49 8q-60 -10 -129 -97 q-63 -79 -69 -135z" />
<glyph unicode="b" horiz-adv-x="632" d="M-100 -169.5q1 33.5 12 120.5q24 192 115 461q34 99 82.5 224.5t122.5 297.5q74 170 150 284q75 113 127 113h1q36 -1 37 -46q0 -89 -138 -345q-208 -388 -313 -528q-68 -188 -123 -381q-19 -74 -24 -101q44 97 91 180t106.5 150.5t105.5 67.5q38 0 56 -26t18 -69 q0 -60 -25 -137l-6 -16q213 82 344 264q11 11 21.5 4t3.5 -20q-45 -62 -96 -111t-102.5 -82.5t-94 -54t-92.5 -39.5q-22 -47 -64 -96q-42 -38 -61 -47q-33 -17 -59 -17q-7 0 -15 2q-33 7 -33 36q-1 31 37 65q40 36 121 63l24 8q3 6 12.5 26.5t14.5 31.5q4 11 9 25t12 38 t10 45t3.5 41t-8 31.5t-24.5 11.5h-1q-38 -1 -93 -67q-56 -68 -102 -149.5t-89 -174.5q-55 -119 -65 -119q-9 2 -8 35.5zM63 -88q1 -9 10.5 -12.5t27 2.5t36.5 22q25 22 43 49q22 31 29 43q-76 -25 -112 -54t-34 -50zM131 510q89 131 267 466q125 236 126 306q0 29 -22 29 q-18 0 -46.5 -39t-61.5 -108.5t-65.5 -144t-68 -165.5t-59 -152t-47 -126t-23.5 -66z" />
<glyph unicode="c" horiz-adv-x="448" d="M-104 72q2 71 50 169t117.5 170t124.5 72q16 0 31 -6q18 -11 25 -22q8 -13 8 -35q-3 -20 -12 -41q-2 -4 -2 0q3 23 -2 41q-4 15 -11 22l-16 9q-10 3 -19 0q-35 -8 -96.5 -87t-110.5 -174.5t-53 -146.5v-7q0 -67 56 -71h3q77 0 201 98q74 60 146.5 139t118.5 142 q13 13 23 6t1 -22q-49 -68 -121 -147.5t-149 -139.5q-124 -102 -223 -102q-90 3 -90 125v8z" />
<glyph unicode="d" horiz-adv-x="737" d="M-16 221q-1 11 -1 23q0 74 48 166q58 110 140 148q32 15 64 15h7q39 0 69 -43q1 -3 7 -11.5t8 -14.5q1 6 4 14.5t4 11.5q15 42 46.5 119t86.5 201t108 227t111 179q57 75 93 75h1q35 -1 36 -46q0 -88 -138 -346q-208 -389 -311 -527q-108 -302 -144 -443 q-27 -124 -27 -191q0 -78 36 -77q4 0 10 1q84 21 307 357q115 171 199 285q12 14 22 6.5t0 -22.5q-86 -119 -197 -285q-211 -311 -308 -358q-19 -9 -34 -9q-50 0 -58 100q-2 19 -2 42q0 65 13 159q15 114 64 291q-45 -48 -76 -73q-56 -50 -109 -50h-3q-67 0 -76 76zM26 230 q-3 -18 -3 -31q0 -38 28 -39q40 0 105 57q42 35 112 115q7 24 16 51.5t20.5 60.5t17.5 52q-1 3 -23 24q-26 23 -57 23q-60 -8 -132 -120q-68 -105 -84 -193zM401 510q89 132 267 466q125 235 126 304q0 29 -22 29q-14 0 -34.5 -25t-44.5 -69t-50 -97.5t-53.5 -119 t-51.5 -125.5t-48.5 -124.5t-40.5 -108t-31 -84.5t-17 -46z" />
<glyph unicode="e" horiz-adv-x="434" d="M-79 94q-1 9 -1 19q0 87 66 199q65 110 140 153q31 18 58 18q40 -1 55 -27t7.5 -61t-29.5 -69q-27 -38 -70 -65.5t-88 -33.5q-21 -3 -39 0q-2 0 -5 1t-5 1q-19 -43 -29.5 -80t-11.5 -68t14 -49t46 -18h1q74 0 210 121q138 122 202 209q9 11 20.5 3.5t4.5 -19.5 q-36 -49 -109.5 -124.5t-166.5 -144.5t-146 -69q-115 1 -124 104zM14 238h6l33 8q88 37 148 94q21 22 28.5 50.5t-4 47t-39.5 13.5q-33 -7 -82.5 -70t-89.5 -143z" />
<glyph unicode="f" horiz-adv-x="604" d="M-176 -732q3 42 9.5 89.5t18 101t21 94t19 76.5t10.5 41l73 295v127l-6 17q-6 24 -5 43t5 30.5t8 12.5q5 0 10 -8t10 -28.5t7 -49.5v-13l4 -12l31 104q57 161 96 261q-100 -118 -112 -134q-13 -13 -22.5 -4.5t-0.5 23.5q31 44 97.5 118.5t74.5 84.5q19 44 52.5 114.5 t89 173t110 187t114.5 144.5q57 56 99 56h4q28 -3 28 -31q0 -105 -390 -565q-87 -200 -175 -450l-49 -152q23 -21 59 -28q10 -2 23 -2q28 0 65 10q53 15 113 52.5t138 114.5t159 185q12 12 21.5 4t1.5 -22q-81 -109 -161 -187.5t-143.5 -117t-120.5 -54.5q-43 -12 -76 -12 q-11 0 -22 1q-39 6 -67 26l-41 -138q0 -43 -4 -129q-9 -185 -33 -321q-20 -103 -47 -164q-26 -57 -61 -57h-4q-18 1 -25 27q-6 19 -6 47v19zM-152.5 -788q2.5 -18 11.5 -19h1q46 0 79 199q10 65 17.5 147.5t10 126.5t2.5 53l2 11q-11 -34 -20 -72q-34 -102 -72 -250 q-11 -43 -18 -79.5t-11.5 -67.5t-2 -49zM322 715q85 98 226 289q103 140 103 179q0 14 -14 15h-1q-27 0 -74 -59q-47 -60 -99 -154t-84 -156t-57 -114z" />
<glyph unicode="g" horiz-adv-x="692" d="M-386 -982q15 126 96 278q23 42 48 79q72 105 234 267l71 165q145 330 347 773q-171 -226 -238 -301q-75 -88 -135 -121q-23 -13 -39 -13q-29 0 -29 49v7q0 17 4 39q13 88 80 190q41 55 72 82q36 36 78 47q21 6 39 6q21 -3 37 -16q14 -14 22 -33l8 -27q26 32 103 134 q19 25 25.5 18.5t-1.5 -35.5q-42 -130 -78 -235q-95 -274 -231 -592l-6 -17q41 41 102 95q129 119 184 170.5t146 146.5t147 170q11 13 22 6t1 -24q-43 -58 -96 -118t-128 -133.5t-118 -113.5t-137 -127q-120 -107 -154 -139q-121 -278 -246 -498q-81 -144 -130 -207 q-47 -61 -74 -61h-2q-27 0 -27 52q0 16 3 37zM-360 -1025q2 -14 10 -15h1q37 0 156 256q127 293 152 352q-109 -112 -176 -209q-22 -32 -42.5 -70.5t-36.5 -76t-29.5 -74.5t-21.5 -68.5t-11.5 -56t-1.5 -38.5zM12 227q-16 -39 -16 -54q0 -10 7 -10q4 0 12 4q36 19 135 130 q82 95 151 182q-6 15 -18 27q-11 11 -23 16q-9 3 -18 0q-5 0 -21 -8q-24 -17 -51 -47q-30 -33 -59 -76q-44 -64 -99 -164z" />
<glyph unicode="h" horiz-adv-x="696" d="M-100 -147l12 98q24 192 115 461q34 99 82.5 224.5t122.5 297.5q74 170 150 284q75 113 127 113h1q36 -1 37 -46q0 -89 -138 -345q-208 -388 -313 -528q-68 -188 -123 -381l-16 -78q39 85 86 168.5t105 168.5t121 137.5t116 53.5q49 0 62 -49q6 -22 6 -49q-1 -31 -9 -68 q-16 -68 -33.5 -139.5t-29.5 -116.5t8 -49q15 0 48.5 30t54.5 54q98 104 210 250q12 12 23 6.5t2 -22.5q-101 -135 -213 -254q-84 -90 -133 -90t-49 75v9q1 38 15.5 94.5t30.5 105.5q16 50 28 94q10 35 10 58v12q-4 26 -29 25q-43 0 -95 -44t-98 -106.5t-95.5 -148t-82 -150 t-63.5 -131.5q-34 -76 -46 -76h-1q-9 2 -6 52zM131 510q89 131 267 466q125 236 126 306q0 29 -22 29q-18 0 -46.5 -39t-61.5 -108.5t-65.5 -144t-68 -165.5t-59 -152t-47 -126t-23.5 -66z" />
<glyph unicode="i" horiz-adv-x="415" d="M-78 111q33 163 96 247q20 20 45.5 -0.5t10.5 -42.5q-53 -68 -101 -215q-9 -32 -13.5 -62t-1.5 -57t15 -41.5t40 -10.5t69 30q99 63 307 340l35 45q10 10 20 2t2 -20l-32 -45q-67 -86 -102 -130t-104 -117.5t-118 -103.5q-47 -28 -80 -28q-17 0 -31 7q-40 22 -54 77 q-8 31 -8 66q0 28 5 59zM88 494q0 12 10 21t23 9t23 -9t10 -21q0 -14 -10 -23.5t-23 -9.5t-23 9.5t-10 23.5z" />
<glyph unicode="j" d="M-504 -1195q7 -5 19 -5q36 1 88 71t98.5 164t95.5 211.5t76 190t45 123.5q-1 -1 -21 -29t-50 -70.5t-66 -94.5t-78 -115t-76 -119q-142 -227 -142 -299q0 -20 11 -28zM-487 -1219q-52 0 -52 53q0 81 123 288q8 14 17 28q62 102 147.5 224t139 193t65.5 85 q195 558 199 708q0 54 -23 54q-13 0 -43 -27q-10 -9 -20.5 -21t-24.5 -30.5t-16 -20.5q-13 -13 -23 -4.5t-2 21.5q33 48 66 78q34 30 59 30q55 -3 55 -112q-3 -168 -106 -518q131 168 291 364q56 69 135 170q12 12 22 5t2 -21q-22 -32 -137 -172q-23 -29 -143.5 -179.5 t-194.5 -244.5q-8 -27 -18 -57.5t-15.5 -48.5t-7.5 -25q-119 -335 -250 -564q-21 -36 -33.5 -56.5t-42.5 -64t-53.5 -68.5t-55.5 -46t-60 -21zM133 530q0 13 9.5 23t21.5 10q14 0 23.5 -9.5t9.5 -23.5q0 -12 -10 -21t-23 -9q-12 0 -21.5 9t-9.5 21z" />
<glyph unicode="k" horiz-adv-x="612" d="M-93 -161q-3 7 -3 24q0 29 8 88q24 192 115 461q34 99 82.5 224.5t122.5 297.5q74 170 150 284q75 113 127 113h1q36 -1 37 -46q0 -89 -138 -345q-208 -388 -313 -528q-62 -176 -108 -334q72 162 151 276q23 35 51.5 70t71.5 70t76 36h2q39 0 46 -48q2 -13 2 -25 q0 -35 -17 -68q-30 -59 -92 -106q-89 -58 -181 -66h-6q-1 -4 -1 -9q0 -39 55 -117q61 -87 116 -87q58 3 129 74q41 39 139 151q16 21 36.5 47t34 43t20.5 25q12 13 21.5 6t0.5 -22q-27 -39 -90 -117q-81 -96 -141 -156q-81 -77 -156 -80h-2q-78 -1 -132 67q-47 60 -47 130 q0 10 1 21q-75 -146 -123 -277q-31 -82 -42 -82q-2 0 -4 5zM96 227q87 43 152 97q50 38 86 88q14 20 20.5 41t3.5 36t-18 15q-21 1 -47 -16t-54 -51t-41 -51.5t-34 -47.5q-15 -20 -68 -111zM131 510q89 131 267 466q125 236 126 306q0 29 -22 29q-18 0 -46.5 -39 t-61.5 -108.5t-65.5 -144t-68 -165.5t-59 -152t-47 -126t-23.5 -66z" />
<glyph unicode="l" horiz-adv-x="454" d="M-72 -114q-1 21 -1 43q-1 27 1 55q4 52 14.5 108.5t20 99.5t19.5 76l18 64q19 64 55 164l2 8q8 20 11 26q15 42 41.5 108t75 173t95.5 194t99.5 151.5t89.5 64.5h1q33 0 33 -41q0 -87 -153 -360q-122 -219 -241 -392q-7 -11 -11 -16q-2 -7 -9.5 -29.5t-19 -58.5 t-22.5 -68q-75 -243 -88 -326q-5 -30 -4 -53q0 -61 33 -63q19 -2 46 15t63.5 54.5t68 73t79 97t75.5 98.5t77.5 104.5t65.5 89.5q13 13 22.5 5.5t1.5 -21.5q-24 -32 -96.5 -130.5t-114 -151.5t-101.5 -123.5t-104.5 -103.5t-76.5 -34q-30 0 -46.5 27t-19.5 72zM133 510 q99 144 249 418q101 183 101 244q0 30 -24 30q-18 0 -43.5 -34t-54.5 -92.5t-57.5 -123t-58.5 -142t-50 -131.5t-40 -109.5t-22 -59.5z" />
<glyph unicode="m" horiz-adv-x="886" d="M-2 342q1 14 14 18t25.5 -2t11.5 -18q-7 -64 -7 -98q0 -39 9 -39q7 0 20.5 13t43.5 49t43 50q95 111 135 111q29 -1 37 -29q5 -15 5 -33q1 -16 -3 -35q-8 -40 -20 -79.5t-21.5 -67.5t-7.5 -28q7 0 62 58q56 59 123 118q65 57 97 57h2q20 -1 28 -17t4 -45t-11.5 -58 t-19.5 -68q-2 -6 -3 -9.5t-3 -9t-3 -10.5q-10 -33 -15.5 -55t-8 -44t3.5 -33t20 -11h1q94 0 308 282q4 5 13.5 18t13.5 17q11 11 21.5 3t3.5 -21q-4 -4 -9 -10t-11 -13.5t-9 -11.5q-209 -283 -322 -287h-5q-36 0 -58 14q-22 15 -26.5 42.5t0.5 57t18 68.5q11 33 32.5 83 t29.5 73t-1 23q-17 0 -134 -117t-140 -117q-49 1 -49 52q0 25 12 62q8 25 27 73q25 60 25 78q0 5 -2 7q-2 3 -7 3t-11 -3.5t-13.5 -10t-14.5 -13t-17 -18t-17.5 -20t-20 -22.5t-19.5 -22q-31 -38 -50 -59t-44 -41t-41 -21h-2q-43 0 -43 166z" />
<glyph unicode="n" horiz-adv-x="817" d="M-57 46.5q-2 17.5 2.5 48t12 67t17.5 76t19 73.5t15.5 61.5t8.5 37.5q4 28 33 34q27 5 36 -13q5 -9 1 -21q-6 -16 -24 -65t-33 -90.5t-31 -86.5t-25 -71.5t-8 -26.5q6 0 53 55q14 16 75.5 99t114.5 150.5t117.5 127t102.5 59.5q36 0 36 -56q0 -53 -33 -158 q-19 -61 -120 -325q-84 -223 -84 -289v-9q3 -28 25 -27q24 0 84 53q85 79 223.5 252.5t239.5 312.5q18 23 22 29q15 15 25 8t0 -26q-20 -24 -23 -29q-333 -445 -475 -571q-60 -50 -92 -50q-80 0 -80 98q0 65 35 173q32 96 143 352q78 178 78 218q0 18 -12 18h-2 q-38 0 -114 -85q-78 -87 -168 -212.5t-95 -131.5q-67 -77 -88 -77q-10 0 -12 17.5z" />
<glyph unicode="o" d="M-66 127q17 152 101 252q19 20 43.5 -3.5t7.5 -43.5q-64 -74 -106 -213q-13 -49 -13 -81t10 -45t27 -13q47 1 92 53.5t78 132.5q-50 40 -68 112q-8 31 -9 62q0 40 14 80q9 25 29.5 41t43.5 16q25 4 43 -20q24 -34 24 -97v-18q-4 -76 -36 -158q27 -23 59 -23q47 0 105 48 q46 36 119 135q13 13 23 6t1 -22q-63 -93 -125 -142q-67 -56 -129 -56q-34 0 -67 17q-37 -81 -87 -133.5t-104 -52.5q-41 -1 -63 41q-16 29 -16 80q0 21 3 45zM141 414q0 -7 -1 -14q0 -120 50 -189q16 47 23 89q5 33 5 58v14q-2 29 -9.5 50t-17.5 31t-21 10q-29 -4 -29 -49z " />
<glyph unicode="p" horiz-adv-x="575" d="M-408 -832q4 -14 17 -14q113 0 270 671q6 24 8 34q-108 -197 -170 -328q-5 -11 -11.5 -25t-21.5 -46t-27 -62t-26.5 -67t-23.5 -67t-14 -56t-1 -40zM-391 -868h-3q-36 0 -36 52q0 68 63 227q23 56 58 132q96 204 221 412q7 28 39 169.5t51 219.5q5 19 24 22.5t34 -8.5 t10 -32l-47 -189q2 3 18 28.5t25.5 40.5t29 45t35 50.5t36 47.5t38 45t36 35t35.5 25.5t31 8.5q28 1 44.5 -22t20 -47t3.5 -54q0 -61 -29 -150l-24 -61q147 66 260 215q15 15 24 7.5t0 -25.5q-139 -180 -307 -236q-28 -54 -86 -106q-73 -70 -143 -70q-39 2 -58 28 q-10 14 -10 31q0 14 8 31q21 41 84 64q24 9 80 20q28 3 55 12q36 74 52 115q9 22 19 50t23 74q11 37 11 64q0 6 -1 12q-3 30 -26 31q-12 0 -29 -11t-36.5 -32.5t-39 -45t-43 -57t-41 -59t-40 -61.5t-33.5 -54t-27.5 -46t-17.5 -29q-13 -52 -23.5 -91.5t-33.5 -124.5 t-44.5 -152t-50.5 -154t-57.5 -151t-59 -122.5t-62 -90.5t-60.5 -33zM33 -49q7 -20 35 -21q48 0 106 78l37 58l-31 -9q-47 -7 -76 -18q-49 -17 -67 -49q-11 -19 -4 -39z" />
<glyph unicode="q" horiz-adv-x="632" d="M-147 -907q2 49 26 143q44 177 150 459l57 149q-21 76 -66 107q-19 0 -28 6q-23 7 -30.5 15t0 14t24.5 8q21 0 43 -12v-2q1 0 4 -3q17 -1 43.5 -1t62.5 1q41 101 246 549q-162 -214 -238 -301q-77 -90 -136 -123q-22 -12 -36 -12q-30 0 -30 49v9q0 17 4 38q13 91 80 193 q38 51 71 82q46 37 78 47q22 6 39 4q20 -3 37 -14q11 -11 22 -33q6 -16 9 -29l102 135q19 25 26 18t-1 -34q-87 -281 -201 -567q69 17 141 67q126 83 289 289q12 14 22.5 7.5t0.5 -23.5q-147 -198 -295 -297q-92 -63 -172 -76q-27 -68 -70 -172q4 -28 4 -43q1 -17 1 -35 q0 -106 -36 -246q-37 -154 -98 -276q-27 -49 -70 -111q-38 -47 -59 -47q-18 3 -18 38q0 13 2 30zM-132 -936q-1 -17 5 -20q21 0 98 153q59 112 97 268q34 139 34 254l-18 -47q-2 -5 -13.5 -33.5t-25.5 -64.5t-33.5 -85.5t-37.5 -97.5t-37.5 -100.5t-33 -94t-24 -78.5 t-11.5 -54zM-12 176q-17 -39 -17 -55q0 -10 8 -10q4 0 12 4q43 23 134 131q57 64 151 182q-7 14 -18 25q-10 14 -22 16q-6 2 -19 2q-4 0 -20 -8q-22 -16 -52 -49q-57 -71 -59 -74q-40 -57 -98 -164zM68 -53q19 -23 34 -62l25 62h-59z" />
<glyph unicode="r" horiz-adv-x="565" d="M-23 -228q-3 13 -3 29q0 34 12 84q5 20 11.5 40t16 42.5t16 38t20 41.5t19.5 36.5t22 40t20 36.5q2 3 14 24t15.5 27t14 26t15 29t14 27t14 29.5t11 27t11 29.5t7.5 27q3 15 3 28q0 28 -12 43q-18 22 -56 31q-40 -59 -139 -193q-4 -6 -12 -3t-11.5 9.5t0.5 12.5 q56 75 129 180q-74 8 -97 23q-32 21 -32 70q0 22 6 50q8 33 33 80q41 73 118.5 134t151.5 61q45 0 45 -45q0 -30 -20 -80q-38 -97 -162 -285q49 -5 77 -31q27 -25 28 -86q1 -45 -21 -105q-18 -54 -34.5 -84.5t-49.5 -90.5q-16 -28 -47 -78.5t-55.5 -93.5t-42.5 -80 q-22 -53 -23.5 -83.5t12.5 -37.5t38 -0.5t49 20.5t51 33q54 40 128.5 132t116.5 153t109 162q11 16 25 36.5t23 33.5t15 20q5 4 11.5 2t11 -8.5t0.5 -11.5q-5 -6 -13.5 -18.5t-23 -33.5t-25.5 -36q-239 -362 -364 -455q-40 -31 -80 -46q-27 -10 -50 -10q-11 0 -21 2 q-31 7 -40 45zM49 595.5q-4 -18.5 0.5 -30t10 -19t21 -11.5t25.5 -5.5t31 -3.5q2 3 12 19q182 274 182 342q0 22 -20 22q-30 -1 -77.5 -44.5t-80.5 -85.5t-55 -77q-28 -46 -35 -63q-10 -25 -14 -43.5z" />
<glyph unicode="s" horiz-adv-x="563" d="M-96 -578q6 44 24 93q50 131 222 340q-17 48 -47.5 108.5t-51.5 102.5t-38 105.5t-17 131.5q3 104 49.5 182.5t124.5 79.5q31 1 48.5 -18.5t20.5 -51t0 -61.5t-10 -59q-4 -16 -12.5 -20t-13.5 4t0 24q6 24 9.5 48t4 51t-10.5 44t-32 17q-57 -1 -95 -79q-36 -75 -36 -153 v-8q7 -78 31 -141.5t63.5 -135t57.5 -116.5q34 40 97.5 112t74.5 84q154 173 204 238q12 14 22.5 7.5t0.5 -23.5q-46 -63 -205 -242q-129 -144 -182 -209q32 -103 35 -213q-3 -82 -23.5 -144.5t-68.5 -119.5q-30 -34 -71.5 -61t-80.5 -27h-3q-45 0 -69 32q-22 29 -22 68v10z M-66 -580q-1 -10 -1 -20q0 -26 8 -46q11 -27 45 -26q30 1 64.5 24.5t66 64.5t52.5 106.5t21 140.5q-9 90 -30 158q-161 -201 -205 -322q-18 -40 -21 -80z" />
<glyph unicode="t" horiz-adv-x="423" d="M-449 690q-4 9 1 11.5t10 -5.5q44 -76 204 -76q137 0 359 56q29 78 49 162q5 25 32 26q24 1 27 -19v-11q-13 -61 -40 -140q27 7 78.5 21.5t68.5 17.5q198 51 267 64q156 30 266 30q215 0 253 -116q1 -3 0 -5t-3.5 -1.5t-4.5 4.5q-16 37 -54 59t-84 30q-35 6 -79 5 q-15 -1 -30 -1q-63 -2 -119 -11t-124 -24t-113.5 -27t-98.5 -27t-68 -19q-9 -2 -69 -18t-103 -25q-27 -76 -63.5 -169.5t-75.5 -191l-49 -122.5q-69 -188 -123 -395q-17 -75 -17 -115t18 -43h3q37 0 131 123q85 108 299 418q108 158 133 188q14 15 23.5 8t-0.5 -24 l-131 -189q-216 -312 -301 -418q-73 -92 -121 -119q-19 -10 -33 -10q-22 0 -32 26q-8 21 -8 58q0 40 9 99q24 143 109 407q11 33 72 197.5t92 257.5q-197 -44 -327 -44q-191 0 -233 97z" />
<glyph unicode="u" horiz-adv-x="372" d="M-31.5 176q1.5 28 2.5 45q5 27 31 121q5 17 19 20.5t24.5 -7t5.5 -27.5l-12 -30q-46 -112 -47 -153q0 -17 9 -22q5 -3 11 -2q28 3 99.5 91.5t87.5 127.5q6 15 25 2q20 -14 14 -29q-5 -12 -16 -31t-17.5 -35.5t-9.5 -35.5q0 -12 10 -12q17 0 64 35q11 8 14 10 q73 62 96 100q17 15 26 9t-2 -25q-25 -44 -102 -107q-19 -14 -31 -21.5t-34 -18t-38.5 -5.5t-25.5 25q-4 9 -4 49q-102 -150 -160 -152q-21 -1 -31 24.5t-8.5 53.5z" />
<glyph unicode="v" horiz-adv-x="571" d="M-43 141q3 72 27 146q10 33 22 55q15 34 41 28q21 -5 24 -28q1 -13 -8 -27q-28 -53 -55 -166q-18 -78 -18 -123q0 -61 32 -65h7q41 3 116 94t119 162q-4 2 -11.5 11t-8.5 10q-21 24 -29 57q-5 19 -5 43q0 10 1 22q9 68 45 117q15 20 41 37t53 20t41 -26q7 -14 7 -34 q0 -56 -52 -161q-10 -21 -45 -80q26 -16 59 -16q12 0 26 2q50 8 95 35q58 38 101 92q18 15 26.5 9t-4.5 -27q-38 -57 -106 -99q-46 -29 -102 -37q-15 -2 -29 -2q-41 0 -80 17q-21 -35 -46.5 -71t-64 -84t-77.5 -78.5t-68 -30.5q-43 -1 -61 57q-14 43 -14 102q0 19 1 39z M260 356q-2 -19 2 -51q3 -24 14 -43l9 -10q33 60 63 136q20 53 21 84q0 14 -4 24q-9 19 -21.5 21t-24 -8.5t-20.5 -23t-14 -24.5q-22 -56 -25 -105z" />
<glyph unicode="w" horiz-adv-x="587" d="M-37 68q-1 12 -1 28q0 32 5 82q20 121 35 164q8 24 29 21q20 -3 19 -27q0 -8 -3 -17q-6 -23 -21 -71t-22 -76q-4 -17 -7 -31t-9 -45t-4 -49.5t10 -17.5q18 3 60.5 52.5t76.5 100.5q19 27 39.5 19.5t13.5 -39.5q-2 -6 -5 -21q-12 -45 -19 -73t-18.5 -81t-13.5 -88 q-1 -23 -1 -48v-24q1 -37 15.5 -56t39.5 -19q22 0 39 19.5t28 54t18.5 73.5t12 89.5t7 89.5t4.5 85t4 66q2 19 27 19q12 0 28 -4q21 -6 47 -6q32 0 74 10q38 11 70 37q24 19 55 59q13 15 23 7t-1 -25q-33 -46 -59 -64q-37 -29 -80 -43q-35 -11 -67 -11q-7 0 -15 1 q-33 0 -47 4q-4 -24 -13 -94t-18.5 -127t-26 -119t-44.5 -98t-66 -37q-31 0 -51.5 18.5t-26.5 54.5q-6 35 -8 73q0 7 -1 14q0 33 6 75q7 51 13 86t15 78q-98 -122 -135 -124h-1q-27 0 -30 55z" />
<glyph unicode="x" horiz-adv-x="768" d="M0 332q59 84 106 131q56 56 107 59h2q48 0 75 -48q28 -48 40 -126q112 191 148 242q88 124 155 131q6 0 6 -3t-6 -3q-37 -9 -77 -55t-67 -94.5t-74.5 -139t-76.5 -139.5q2 -22 3.5 -53.5t2.5 -38.5q0 -3 -2 -49q-1 -34 -1 -65q1 -10 1 -19q0 -38 2.5 -83.5t12 -72 t24.5 -25.5q23 0 65 39q81 71 277 352q11 15 28 40t23 32q14 14 24 7.5t1 -23.5q-32 -43 -51 -74q-3 -4 -26.5 -37t-31 -43.5t-31 -42.5t-35 -47t-33.5 -43.5t-36.5 -45.5t-33 -38t-34 -37t-30.5 -29q-37 -30 -66 -30h-2q-35 0 -59 35q-24 36 -35.5 96.5t-15.5 104t-5 87.5 q-115 -157 -239 -196q-9 -2 -8 4q0 3 4 4q61 23 119 89t124 171v37q0 209 -53 209q-31 0 -94 -60q-31 -31 -104 -129q-12 -12 -22 -3.5t-1 22.5z" />
<glyph unicode="y" horiz-adv-x="581" d="M-485 -1102q80 2 252 367q88 190 131 299l30 74q-67 -73 -145 -187q-84 -124 -152 -244q-124 -248 -124 -297q0 -12 8 -12zM-485 -1116h-2q-25 0 -25 33q0 74 121 309q67 123 149 242q82 121 201 247q147 367 197 473q-41 -48 -68 -67q-34 -27 -57 -27q-18 0 -31 6.5 t-20 19t-10.5 26t-2 34t3 36.5t7 38.5t8.5 34.5t9 31.5t7 23.5q3 11 9.5 16t14 3.5t14.5 -5.5t10 -12t1 -16q-2 -6 -12.5 -33t-20 -54.5t-17 -57t-4.5 -48.5t19 -20h3q21 0 59 30q54 48 117 146q12 16 36 74q19 41 48 94q19 37 45 74q7 11 17.5 27t29 36t28.5 20q6 -1 5 -10 t-7 -30l-16 -37q-66 -129 -113 -193l-26 -39q-1 -2 -23 -35q-67 -208 -170 -471q43 39 129 113q91 80 137.5 122.5t126.5 128t148 177.5q13 13 22 6t0 -22q-69 -93 -147.5 -178t-129.5 -132t-138 -122q-112 -100 -174 -158q-44 -116 -78 -193q-50 -123 -144 -301 q-187 -358 -286 -360z" />
<glyph unicode="z" horiz-adv-x="501" d="M-457 -758v12q-1 32 13 72q16 46 54 98.5t73.5 96.5t93 101t91.5 89t91.5 84t69.5 64l118 110q7 28 7 49q3 35 -2 60q-3 23 -15 45q-12 18 -31 29q-16 8 -24 10q-23 6 -23 16q1 5 5.5 11t9.5 9.5t12.5 9.5t9.5 7q18 14 49 49q35 51 48 86q8 23 10 39q2 23 -4 40.5 t-27 16.5q-31 0 -86 -55q-23 -24 -61 -78q-14 -14 -24 -7t-1 24q42 56 66 80q52 57 98 57q32 1 57 -21t25 -51q0 -55 -41.5 -107.5t-98.5 -80.5l27 -12q28 -20 45 -45q17 -29 23 -62q3 -19 3 -41q0 -13 -1 -27q223 212 309 324q8 9 16.5 8.5t10.5 -7.5t-4 -17 q-93 -124 -338 -355q-24 -129 -119 -305q-26 -45 -63 -100t-91 -124t-107 -124t-112 -93.5t-106 -39.5q-52 0 -56 55zM-434 -758q4 -33 35 -33q51 0 119 55.5t131.5 138t112 155.5t79.5 131q68 132 92 229l-86 -82q-9 -8 -49.5 -45t-64 -59t-68.5 -64.5t-74.5 -74t-68.5 -74 t-64.5 -77.5t-49 -72t-34.5 -69.5t-10 -58.5z" />
<glyph unicode="{" horiz-adv-x="647" d="M43 -164q-7 54 14 131q9 26 56 133q9 18 39 75t48 95.5t31 77.5q13 44 13 74q0 36 -18 63t-36 45t-18 29q0 9 21 28t53 46t47 45q52 58 100 156q18 40 34 81t36 99t29 82q27 76 53 124t73 93q51 45 115 67q79 25 166 25q20 0 29.5 -13.5t1 -26.5t-30.5 -13 q-82 0 -149 -21q-57 -20 -99 -55q-29 -27 -52.5 -62.5t-35 -59.5t-33.5 -75q-8 -21 -31.5 -81t-41 -99t-39.5 -78q-45 -85 -117 -157q-6 -6 -35.5 -32.5t-50 -47t-20.5 -27.5q0 -8 16.5 -27.5t33.5 -51.5t17 -70q0 -20 -8 -66q-19 -76 -104 -258q-37 -90 -48 -129 q-17 -66 -10 -113q8 -52 47 -94q45 -45 135 -80q16 -6 18 -20t-9 -24t-27 -5q-102 40 -156 94q-49 51 -57 123z" />
<glyph unicode="|" horiz-adv-x="374" d="M160 -455q-13 1046 6 1913q-1 19 12.5 27.5t27.5 0t15 -29.5q-3 -124 -12 -580.5t-19 -751t-28 -579.5q0 -3 -1 -3t-1 3z" />
<glyph unicode="}" horiz-adv-x="772" d="M-185.5 -343q8.5 13 29.5 13q85 3 150 21q56 20 98 57t67.5 81.5t53.5 113.5q9 21 26 64.5t27.5 68t26.5 60.5t33 67q52 94 116 155q7 7 36.5 32.5t51 46.5t21.5 28q0 8 -17 28t-34 52.5t-17 70.5q-2 21 9 64q7 32 20 68.5t24 61.5t30 67t28 63q33 68 49 127 q15 59 10 113q-12 57 -49 94q-45 45 -135 80q-16 6 -17.5 20t9.5 24t26 5q99 -37 156 -92q48 -53 59 -125q5 -62 -16 -131q-18 -61 -55 -133q-10 -19 -31 -59t-33.5 -64.5t-28.5 -59.5t-26 -65q-12 -50 -12 -72q0 -37 18 -64.5t35.5 -44.5t17.5 -28q0 -10 -20.5 -29.5 t-51.5 -47t-46 -44.5q-59 -66 -103 -156q-14 -30 -28.5 -66t-23 -61t-23 -68.5l-21.5 -64.5q-30 -78 -56 -126t-71 -93q-49 -44 -117 -67q-79 -25 -166 -25q-20 0 -29 13.5t-0.5 26.5z" />
<glyph unicode="~" horiz-adv-x="729" d="M147 250q19 53 50 84q33 25 67 28q26 2 53 -4.5t43.5 -13.5t47.5 -22q83 -49 122 -56q32 -3 56 8q27 12 59 52l3 4q1 -1 -1 -4q-18 -45 -51 -68q-29 -20 -68 -20q-55 2 -139 49q-3 2 -16 8.5l-18 9t-16.5 8t-18 7.5t-16.5 5.5t-19.5 5t-18.5 1.5q-30 0 -55 -17 q-35 -21 -61 -65q-3 -3 -3 0z" />
<glyph unicode="&#xa2;" horiz-adv-x="448" d="M-104 72q3 86 69.5 204.5t143.5 174.5l6 194q-1 19 12.5 27.5t27.5 0t15 -29.5q-4 -132 -4 -164q12 4 22 4q16 0 31 -6q18 -11 25 -22q8 -13 8 -35q-3 -20 -12 -41q-2 -4 -2 0q3 23 -2 41q-4 15 -11 22l-16 9q-10 3 -19 0q-11 -3 -26 -15q-4 -121 -7 -169.5t-10 -106 t-14 -137.5q19 12 57 40q74 60 146.5 139t118.5 142q13 13 23 6t1 -22q-49 -68 -121 -147.5t-149 -139.5q-43 -34 -78 -53l-14 -219q0 -3 -1 -3t-1 3l-4 206q-74 -36 -125 -36q-93 3 -90 133zM-70 43q-3 -74 56 -78q54 0 125 43q-1 66 -2.5 122t-2 76t0 60t2.5 115 q-62 -73 -118.5 -177.5t-60.5 -160.5z" />
<glyph unicode="&#xa3;" horiz-adv-x="1593" d="M0 -543q0 74 68 154q72 90 190 141q140 59 297 45l37 -6q104 137 272 406l25 36q-131 3 -273 25q-7 1 -7 2l7 2q156 25 304 25q200 327 286 454q71 104 150 183q49 43 69 53q34 19 72 22q23 0 35 -8q14 -5 29 -20q9 -9 16 -31q3 -7 8 -39q-1 -55 -23 -106.5t-61 -116.5 q-5 -8 -5 -3q0 2 1 3q50 137 39 219q-4 22 -6 25q-3 9 -8 14q-6 6 -11 6q-8 4 -14 4q-22 -3 -45 -16q-29 -15 -59 -45q-67 -64 -144 -174q-90 -128 -276 -424q133 -3 272 -25l6 -2l-6 -2q-156 -25 -307 -25l-37 -59q-169 -257 -276 -391q83 -22 204.5 -91t171.5 -91 q53 -23 99 -25q49 -5 100 12q52 18 115 68q69 63 129 141l2 -2q-62 -96 -117 -153q-52 -52 -117 -84q-59 -23 -114 -23q-45 2 -113 23q-53 21 -182 90.5t-215 89.5q-18 -22 -90 -103q-246 -251 -420 -251q-78 0 -78 73zM14 -549q0 -55 64 -55q85 0 199.5 79.5t203.5 176.5 q24 28 76 92h-8q-149 15 -275 -31q-105 -40 -186 -121q-76 -81 -74 -141z" />
<glyph unicode="&#xa5;" horiz-adv-x="1456" d="M0.5 469q-1.5 68 22 141.5t59 143.5t89 133t112 110t128 75t136.5 28q80 0 120.5 -34.5t43.5 -93.5t-15 -135.5t-50 -161t-66 -169.5t-59 -161.5t-33 -135.5t16 -94t84 -35q64 0 127 25t113.5 60t107 101t94 117.5t90 141.5t79.5 142t77 148q15 28 47 90.5t49 93.5 q10 17 22 12t7 -24q-139 -579 -336 -1007q102 -2 248 -17q14 -2 0 -4q-126 -15 -266 -18q-8 -19 -26 -54t-22 -43q131 0 269 -16q14 -2 0 -4q-146 -19 -289 -19q-286 -525 -600 -522q-64 0 -115.5 19.5t-82.5 51.5t-51 71.5t-23.5 81.5t3 80t25.5 68t47 44q6 2 10 0 t3.5 -6.5t-7.5 -7.5q-22 -12 -37 -39t-20 -61t-1 -72t22.5 -74t46.5 -65t75 -46.5t105 -17.5q264 -3 522 495q-126 3 -262 19q-6 0 -6 1t6 1q125 17 283 20q6 12 21.5 44.5t23.5 50.5q-148 0 -283 18q-7 0 -6.5 1t6.5 1q143 18 301 21q44 98 92.5 219.5t79.5 206.5t78 216 t65 181q-144 -280 -228 -405q-193 -289 -396 -337q-43 -10 -88 -10q-78 0 -116 35.5t-40 94.5t16.5 135.5t51 161.5t66 169.5t58 161t31 135.5t-19.5 94t-88 35q-56 0 -124.5 -36t-131 -96t-120.5 -136t-93.5 -157t-49 -159t12.5 -141q3 -7 -0.5 -12t-9 -4t-8.5 8 q-21 59 -22.5 127z" />
<glyph unicode="&#xad;" horiz-adv-x="819" d="M81 317.5q0 1.5 9 4.5q312 59 623 0q9 -3 9 -4.5t-9 -4.5q-311 -53 -623 0q-9 3 -9 4.5z" />
<glyph unicode="&#xb1;" horiz-adv-x="890" d="M75 -31q0 1 9 4q312 59 623 0q9 -3 9 -4t-9 -4q-311 -53 -623 0q-9 3 -9 4zM160 339h2q2 2 4 3q160 24 285 27q58 148 124 262q3 9 6 2q1 -2 1 -6q-25 -132 -68 -258q114 -3 264 -27q9 -3 9 -4t-9 -4q-164 -25 -282 -25q-53 -140 -125 -260q-6 -10 -6 0q24 133 67 260 q-164 7 -266 29z" />
<glyph unicode="&#xbf;" horiz-adv-x="829" d="M125 -41q-51 90 51 209q34 40 168 164q184 171 352 547q4 12 4 0q-36 -174 -117 -333.5t-198 -260.5q-30 -24 -91.5 -71.5t-92.5 -72.5q-123 -104 -64 -174q26 -26 53 -33q65 -21 164 3q100 29 176 96q87 87 119 207h2q-11 -133 -96 -230q-42 -44 -87 -69.5t-106 -40.5 q-104 -23 -180 12q-36 18 -57 47zM698 1004q0 17 12 28.5t29 11.5t29 -11.5t12 -28.5t-12 -29t-29 -12t-29 12t-12 29z" />
<glyph unicode="&#xc0;" horiz-adv-x="1337" d="M0 98q18 299 188 627q87 163 201 291q118 128 254 194q78 34 143 44t150 -1q87 -21 153 -60t138 -106q7 -6 7 -7t-7 5q-76 58 -144.5 90t-152.5 42q-73 6 -132.5 -7.5t-129.5 -48.5q-120 -68 -230 -190q-95 -112 -188 -279q-166 -314 -209 -598q-9 -73 -1.5 -134.5 t32.5 -103t69.5 -48t110.5 29.5q41 24 89 64.5t106.5 105t106.5 119.5t120 150.5t115 152.5t123.5 171t113.5 161.5t115 165.5q17 25 155 225q27 36 35.5 32t-8.5 -48q-137 -316 -350 -865q-68 -186 -90 -297q-8 -59 4.5 -81.5t37 -15t62.5 37.5q56 48 96 92 q20 22 41.5 47.5t51 63.5t48.5 62.5t61 80.5t61 82q13 13 23 6t1 -22q-149 -216 -264 -338q-53 -58 -107 -101t-86 -40.5t-45 35t-12 93.5q0 122 59 316q107 349 304 696l-54 -78q-95 -137 -133 -191.5t-131 -185t-142.5 -195.5t-131 -167.5t-136 -160t-117 -114.5 t-112.5 -85q-60 -34 -108 -35t-77.5 25.5t-48 73.5t-25 102.5t-3.5 119.5zM743 1520q-1 9 11.5 15t26.5 5t16 -10q12 -82 80 -154q32 -26 65 -33q3 0 3 -1t-3 -1q-30 -2 -74 21q-47 29 -83 71.5t-42 86.5z" />
<glyph unicode="&#xc1;" horiz-adv-x="1337" d="M0 98q18 299 188 627q87 163 201 291q118 128 254 194q78 34 143 44t150 -1q87 -21 153 -60t138 -106q7 -6 7 -7t-7 5q-76 58 -144.5 90t-152.5 42q-73 6 -132.5 -7.5t-129.5 -48.5q-120 -68 -230 -190q-95 -112 -188 -279q-166 -314 -209 -598q-9 -73 -1.5 -134.5 t32.5 -103t69.5 -48t110.5 29.5q41 24 89 64.5t106.5 105t106.5 119.5t120 150.5t115 152.5t123.5 171t113.5 161.5t115 165.5q17 25 155 225q27 36 35.5 32t-8.5 -48q-137 -316 -350 -865q-68 -186 -90 -297q-8 -59 4.5 -81.5t37 -15t62.5 37.5q56 48 96 92 q20 22 41.5 47.5t51 63.5t48.5 62.5t61 80.5t61 82q13 13 23 6t1 -22q-149 -216 -264 -338q-53 -58 -107 -101t-86 -40.5t-45 35t-12 93.5q0 122 59 316q107 349 304 696l-54 -78q-95 -137 -133 -191.5t-131 -185t-142.5 -195.5t-131 -167.5t-136 -160t-117 -114.5 t-112.5 -85q-60 -34 -108 -35t-77.5 25.5t-48 73.5t-25 102.5t-3.5 119.5zM769 1334q0 1 3 1q34 8 66 33q68 72 80 154q2 9 15.5 10t26 -5.5t11.5 -15.5q-6 -44 -41.5 -86t-83.5 -71q-44 -23 -74 -21q-3 0 -3 1z" />
<glyph unicode="&#xc2;" horiz-adv-x="1337" d="M0 98q18 299 188 627q87 163 201 291q118 128 254 194q78 34 143 44t150 -1q87 -21 153 -60t138 -106q7 -6 7 -7t-7 5q-76 58 -144.5 90t-152.5 42q-73 6 -132.5 -7.5t-129.5 -48.5q-120 -68 -230 -190q-95 -112 -188 -279q-166 -314 -209 -598q-9 -73 -1.5 -134.5 t32.5 -103t69.5 -48t110.5 29.5q41 24 89 64.5t106.5 105t106.5 119.5t120 150.5t115 152.5t123.5 171t113.5 161.5t115 165.5q17 25 155 225q27 36 35.5 32t-8.5 -48q-137 -316 -350 -865q-68 -186 -90 -297q-8 -59 4.5 -81.5t37 -15t62.5 37.5q56 48 96 92 q20 22 41.5 47.5t51 63.5t48.5 62.5t61 80.5t61 82q13 13 23 6t1 -22q-149 -216 -264 -338q-53 -58 -107 -101t-86 -40.5t-45 35t-12 93.5q0 122 59 316q107 349 304 696l-54 -78q-95 -137 -133 -191.5t-131 -185t-142.5 -195.5t-131 -167.5t-136 -160t-117 -114.5 t-112.5 -85q-60 -34 -108 -35t-77.5 25.5t-48 73.5t-25 102.5t-3.5 119.5zM672 1350q9 38 90 136.5t115 110.5q2 2 6 0q33 -13 111 -110t89 -135q2 -5 0 -5q-1 0 -2 1q-34 18 -113 111t-89 132q-10 -40 -89 -132.5t-114 -110.5q-4 -2 -4 2z" />
<glyph unicode="&#xc3;" horiz-adv-x="1337" d="M0 98q18 299 188 627q87 163 201 291q118 128 254 194q78 34 143 44t150 -1q87 -21 153 -60t138 -106q7 -6 7 -7t-7 5q-76 58 -144.5 90t-152.5 42q-73 6 -132.5 -7.5t-129.5 -48.5q-120 -68 -230 -190q-95 -112 -188 -279q-166 -314 -209 -598q-9 -73 -1.5 -134.5 t32.5 -103t69.5 -48t110.5 29.5q41 24 89 64.5t106.5 105t106.5 119.5t120 150.5t115 152.5t123.5 171t113.5 161.5t115 165.5q17 25 155 225q27 36 35.5 32t-8.5 -48q-137 -316 -350 -865q-68 -186 -90 -297q-8 -59 4.5 -81.5t37 -15t62.5 37.5q56 48 96 92 q20 22 41.5 47.5t51 63.5t48.5 62.5t61 80.5t61 82q13 13 23 6t1 -22q-149 -216 -264 -338q-53 -58 -107 -101t-86 -40.5t-45 35t-12 93.5q0 122 59 316q107 349 304 696l-54 -78q-95 -137 -133 -191.5t-131 -185t-142.5 -195.5t-131 -167.5t-136 -160t-117 -114.5 t-112.5 -85q-60 -34 -108 -35t-77.5 25.5t-48 73.5t-25 102.5t-3.5 119.5zM621 1378q20 55 49 84q34 27 67 29q26 2 53.5 -5t42.5 -13.5t48 -22.5q80 -47 123 -55q31 -3 55 8q28 13 59 51l3 4q1 -1 -1 -4q-18 -45 -51 -68q-29 -20 -68 -20q-55 2 -139 49q-3 2 -16 8.5l-18 9 t-16.5 8t-18 7.5t-16.5 5.5t-19.5 5t-18.5 1.5q-31 0 -55 -16q-34 -20 -61 -66q-2 -2 -2 0z" />
<glyph unicode="&#xc4;" horiz-adv-x="1337" d="M0 98q18 299 188 627q87 163 201 291q118 128 254 194q78 34 143 44t150 -1q87 -21 153 -60t138 -106q7 -6 7 -7t-7 5q-76 58 -144.5 90t-152.5 42q-73 6 -132.5 -7.5t-129.5 -48.5q-120 -68 -230 -190q-95 -112 -188 -279q-166 -314 -209 -598q-9 -73 -1.5 -134.5 t32.5 -103t69.5 -48t110.5 29.5q41 24 89 64.5t106.5 105t106.5 119.5t120 150.5t115 152.5t123.5 171t113.5 161.5t115 165.5q17 25 155 225q27 36 35.5 32t-8.5 -48q-137 -316 -350 -865q-68 -186 -90 -297q-8 -59 4.5 -81.5t37 -15t62.5 37.5q56 48 96 92 q20 22 41.5 47.5t51 63.5t48.5 62.5t61 80.5t61 82q13 13 23 6t1 -22q-149 -216 -264 -338q-53 -58 -107 -101t-86 -40.5t-45 35t-12 93.5q0 122 59 316q107 349 304 696l-54 -78q-95 -137 -133 -191.5t-131 -185t-142.5 -195.5t-131 -167.5t-136 -160t-117 -114.5 t-112.5 -85q-60 -34 -108 -35t-77.5 25.5t-48 73.5t-25 102.5t-3.5 119.5zM741 1391q0 17 12 29t29 12t29 -12t12 -29t-12 -29t-29 -12t-29 12t-12 29zM893 1393q0 17 12 29t29 12t29 -12t12 -29t-12 -29t-29 -12t-29 12t-12 29z" />
<glyph unicode="&#xc5;" horiz-adv-x="1337" d="M0 98q18 299 188 627q87 163 201 291q118 128 254 194q78 34 143 44t150 -1q87 -21 153 -60t138 -106q7 -6 7 -7t-7 5q-76 58 -144.5 90t-152.5 42q-73 6 -132.5 -7.5t-129.5 -48.5q-120 -68 -230 -190q-95 -112 -188 -279q-166 -314 -209 -598q-9 -73 -1.5 -134.5 t32.5 -103t69.5 -48t110.5 29.5q41 24 89 64.5t106.5 105t106.5 119.5t120 150.5t115 152.5t123.5 171t113.5 161.5t115 165.5q17 25 155 225q27 36 35.5 32t-8.5 -48q-137 -316 -350 -865q-68 -186 -90 -297q-8 -59 4.5 -81.5t37 -15t62.5 37.5q56 48 96 92 q20 22 41.5 47.5t51 63.5t48.5 62.5t61 80.5t61 82q13 13 23 6t1 -22q-149 -216 -264 -338q-53 -58 -107 -101t-86 -40.5t-45 35t-12 93.5q0 122 59 316q107 349 304 696l-54 -78q-95 -137 -133 -191.5t-131 -185t-142.5 -195.5t-131 -167.5t-136 -160t-117 -114.5 t-112.5 -85q-60 -34 -108 -35t-77.5 25.5t-48 73.5t-25 102.5t-3.5 119.5zM725 1389q-4 27 2 67q3 20 27 70q40 75 108 114q40 23 72 25q39 3 72 -12q-36 8 -70 0q-29 -5 -66 -27q-57 -46 -90 -113q-18 -52 -20 -63q-4 -35 0 -53l8 -19l12 -12q4 -4 17 -8q10 -2 26 -2 q33 4 43 8q12 5 33 22q32 32 53 78q17 45 23 95q3 41 -8 75q-1 3 0 4t2 -2q20 -36 20 -80q3 -58 -12 -102q-19 -58 -53 -92q-16 -19 -43 -31q-18 -10 -56 -14q-25 0 -37 4q-20 7 -30 14q-15 12 -23 25z" />
<glyph unicode="&#xc6;" horiz-adv-x="2449" d="M0 98q18 299 188 627q87 163 201 291q118 128 254 194q78 34 143 44t150 -1q87 -21 153 -60t138 -106q7 -6 7 -7t-7 5q-76 58 -144.5 90t-152.5 42q-73 6 -132.5 -7.5t-129.5 -48.5q-120 -68 -230 -190q-95 -112 -188 -279q-166 -314 -209 -598q-9 -73 -1.5 -134.5 t32.5 -103t69.5 -48t110.5 29.5q41 24 89 64.5t106.5 105t106.5 119.5t120 150.5t115 152.5t123.5 171t113.5 161.5t115 165.5q17 25 155 225q27 36 35.5 32t-8.5 -48q-137 -316 -350 -865q-68 -186 -90 -297q-8 -59 4.5 -81.5t37 -15t62.5 37.5q56 48 96 92l50 55 q70 139 156.5 252t205.5 222q167 144 320 208h-27q-77 3 -129 31q-43 26 -59 71t-7 98.5t23.5 96t36.5 86.5q58 116 164 228q112 112 241 178q142 69 283 72q57 -3 94 -17q37 -11 70 -37q29 -29 41 -59q13 -30 16 -68q3 -71 -33 -147t-90 -133q-11 -11 -6 -3q1 2 4 7 q43 67 68 137q21 81 12 135q-3 29 -16 52q-11 18 -31 36q-27 18 -53 23q-27 8 -76 8q-122 -5 -252 -67q-114 -58 -231 -160q-106 -95 -175 -201q-25 -38 -42 -75t-28 -82.5t4 -86t58 -65.5q46 -27 113 -27q53 -3 121 12q21 3 104 25q34 10 37 -4q3 -12 -21 -22q-5 -2 -10 -3 q-21 -6 -56.5 -14.5t-61 -17t-52.5 -23.5q-80 -40 -153.5 -96t-159.5 -137q-120 -121 -206.5 -241t-160.5 -269q-58 -120 -92 -254q-24 -126 -10 -213q16 -79 60.5 -128t106.5 -64t132.5 -6.5t142.5 40.5q213 92 478 381q93 100 182 213t185 245.5t104 143.5q15 15 24.5 9 t-0.5 -25q-21 -28 -107.5 -148.5t-179.5 -239.5t-186 -219q-278 -299 -493 -391q-71 -30 -147.5 -36t-146 11.5t-123.5 70t-75 132.5q-24 99 -4 236q19 113 67 227q-45 -47 -88 -82q-54 -43 -86 -40.5t-45 35t-12 93.5q0 122 59 316q107 349 304 696l-54 -78 q-95 -137 -133 -191.5t-131 -185t-142.5 -195.5t-131 -167.5t-136 -160t-117 -114.5t-112.5 -85q-60 -34 -108 -35t-77.5 25.5t-48 73.5t-25 102.5t-3.5 119.5z" />
<glyph unicode="&#xc7;" horiz-adv-x="1228" d="M2.5 -126q-5.5 91 5 181t31 184t41.5 164.5t43 128.5q78 198 169.5 359.5t217.5 316.5q52 61 101 109t113 99t135 80t140 30q68 1 116.5 -25.5t72 -71t33 -101t3 -116.5t-21.5 -115.5t-37 -99.5q-12 -26 -53 -94q-4 -5 -5 -4.5t1 6.5q18 45 35 101q12 43 20.5 89.5 t14 104t-1.5 108t-24.5 94t-57.5 70t-97 27.5q-64 1 -129.5 -28.5t-125.5 -83.5t-102.5 -101.5t-88.5 -107.5q-211 -290 -365 -670q-16 -42 -31.5 -89t-35.5 -116t-35 -135.5t-25 -141t-11 -139.5t11.5 -125.5t38.5 -103t74 -68t115 -24.5q123 0 276 94q156 94 318 264 q92 97 202 230q139 170 154 190q17 15 26.5 9t-1.5 -25q-38 -51 -156 -195q-99 -120 -205 -229q-159 -171 -321 -271q-169 -100 -291 -100q-3 0 -8.5 1t-8.5 1q0 -7 -6 -22q38 0 42 -34q5 -36 -30 -65q-25 -20 -59 -22q-5 0 -7 3t-0.5 6.5t7.5 4.5q33 3 49 45q10 31 -2 37 q-3 0 -11.5 -2t-12.5 -2q-12 -1 -15.5 7t4.5 17q0 1 4 5.5t7.5 10.5t5.5 13q-83 10 -137.5 58.5t-78.5 118t-29.5 160.5z" />
<glyph unicode="&#xc8;" horiz-adv-x="1439" d="M10 -256q24 129 88 270q75 157 166 280.5t221 242.5q167 144 320 208h-27q-77 3 -129 31q-43 26 -59 71t-7 98.5t23.5 96t36.5 86.5q58 116 164 228q111 111 242 178q142 69 282 72q57 -3 94 -17q37 -11 70 -37q29 -29 41 -59q13 -30 16 -68q3 -73 -32 -147 q-36 -76 -90 -133q-7 -7 -8 -6t5 10q43 67 68 137q21 81 12 135q-3 29 -16 52q-11 18 -31 36q-27 18 -53 23q-27 8 -76 8q-122 -5 -252 -67q-114 -58 -231 -160q-103 -93 -174 -201q-25 -38 -42 -75t-28 -82.5t4 -86t58 -65.5q46 -27 112 -27q53 -3 121 12q23 3 105 25 q34 10 37 -4q3 -12 -21 -22q-5 -2 -10 -3q-21 -6 -56.5 -14.5t-61 -17t-52.5 -23.5q-140 -70 -314 -233q-119 -121 -205 -240.5t-161 -269.5q-58 -120 -92 -254q-24 -129 -11 -213q16 -79 61 -128t107 -64t132.5 -6.5t142.5 40.5q211 91 477 381q93 100 182 213t185 245.5 t104 143.5q15 15 25 9t0 -25q-21 -27 -108 -148.5t-180 -240t-186 -218.5q-278 -299 -493 -391q-71 -30 -147.5 -36t-146 11.5t-123.5 70t-75 132.5q-24 99 -4 236zM1174 1847q-1 9 11.5 15.5t26 5.5t15.5 -10q12 -82 80 -154q32 -26 65 -33q3 0 3 -1t-3 -1q-30 -2 -74 21 q-47 29 -82.5 71t-41.5 86z" />
<glyph unicode="&#xc9;" horiz-adv-x="1439" d="M10 -256q24 129 88 270q75 157 166 280.5t221 242.5q167 144 320 208h-27q-77 3 -129 31q-43 26 -59 71t-7 98.5t23.5 96t36.5 86.5q58 116 164 228q111 111 242 178q142 69 282 72q57 -3 94 -17q37 -11 70 -37q29 -29 41 -59q13 -30 16 -68q3 -73 -32 -147 q-36 -76 -90 -133q-7 -7 -8 -6t5 10q43 67 68 137q21 81 12 135q-3 29 -16 52q-11 18 -31 36q-27 18 -53 23q-27 8 -76 8q-122 -5 -252 -67q-114 -58 -231 -160q-103 -93 -174 -201q-25 -38 -42 -75t-28 -82.5t4 -86t58 -65.5q46 -27 112 -27q53 -3 121 12q23 3 105 25 q34 10 37 -4q3 -12 -21 -22q-5 -2 -10 -3q-21 -6 -56.5 -14.5t-61 -17t-52.5 -23.5q-140 -70 -314 -233q-119 -121 -205 -240.5t-161 -269.5q-58 -120 -92 -254q-24 -129 -11 -213q16 -79 61 -128t107 -64t132.5 -6.5t142.5 40.5q211 91 477 381q93 100 182 213t185 245.5 t104 143.5q15 15 25 9t0 -25q-21 -27 -108 -148.5t-180 -240t-186 -218.5q-278 -299 -493 -391q-71 -30 -147.5 -36t-146 11.5t-123.5 70t-75 132.5q-24 99 -4 236zM1177 1682q0 1 3 1q33 7 65 33q68 72 80 154q2 9 15.5 10t26 -5t11.5 -15q-6 -44 -42 -86.5t-83 -71.5 q-44 -23 -73 -21q-3 0 -3 1z" />
<glyph unicode="&#xca;" horiz-adv-x="1439" d="M10 -256q24 129 88 270q75 157 166 280.5t221 242.5q167 144 320 208h-27q-77 3 -129 31q-43 26 -59 71t-7 98.5t23.5 96t36.5 86.5q58 116 164 228q111 111 242 178q142 69 282 72q57 -3 94 -17q37 -11 70 -37q29 -29 41 -59q13 -30 16 -68q3 -73 -32 -147 q-36 -76 -90 -133q-7 -7 -8 -6t5 10q43 67 68 137q21 81 12 135q-3 29 -16 52q-11 18 -31 36q-27 18 -53 23q-27 8 -76 8q-122 -5 -252 -67q-114 -58 -231 -160q-103 -93 -174 -201q-25 -38 -42 -75t-28 -82.5t4 -86t58 -65.5q46 -27 112 -27q53 -3 121 12q23 3 105 25 q34 10 37 -4q3 -12 -21 -22q-5 -2 -10 -3q-21 -6 -56.5 -14.5t-61 -17t-52.5 -23.5q-140 -70 -314 -233q-119 -121 -205 -240.5t-161 -269.5q-58 -120 -92 -254q-24 -129 -11 -213q16 -79 61 -128t107 -64t132.5 -6.5t142.5 40.5q211 91 477 381q93 100 182 213t185 245.5 t104 143.5q15 15 25 9t0 -25q-21 -27 -108 -148.5t-180 -240t-186 -218.5q-278 -299 -493 -391q-71 -30 -147.5 -36t-146 11.5t-123.5 70t-75 132.5q-24 99 -4 236zM1075 1653q9 38 90 137t115 111q2 2 6 0q33 -13 111.5 -110.5t89.5 -135.5q2 -5 0 -5q-1 0 -2 1 q-34 18 -113.5 111t-89.5 132q-10 -40 -89 -132.5t-114 -110.5q-4 -2 -4 2z" />
<glyph unicode="&#xcb;" horiz-adv-x="1439" d="M10 -256q24 129 88 270q75 157 166 280.5t221 242.5q167 144 320 208h-27q-77 3 -129 31q-43 26 -59 71t-7 98.5t23.5 96t36.5 86.5q58 116 164 228q111 111 242 178q142 69 282 72q57 -3 94 -17q37 -11 70 -37q29 -29 41 -59q13 -30 16 -68q3 -73 -32 -147 q-36 -76 -90 -133q-7 -7 -8 -6t5 10q43 67 68 137q21 81 12 135q-3 29 -16 52q-11 18 -31 36q-27 18 -53 23q-27 8 -76 8q-122 -5 -252 -67q-114 -58 -231 -160q-103 -93 -174 -201q-25 -38 -42 -75t-28 -82.5t4 -86t58 -65.5q46 -27 112 -27q53 -3 121 12q23 3 105 25 q34 10 37 -4q3 -12 -21 -22q-5 -2 -10 -3q-21 -6 -56.5 -14.5t-61 -17t-52.5 -23.5q-140 -70 -314 -233q-119 -121 -205 -240.5t-161 -269.5q-58 -120 -92 -254q-24 -129 -11 -213q16 -79 61 -128t107 -64t132.5 -6.5t142.5 40.5q211 91 477 381q93 100 182 213t185 245.5 t104 143.5q15 15 25 9t0 -25q-21 -27 -108 -148.5t-180 -240t-186 -218.5q-278 -299 -493 -391q-71 -30 -147.5 -36t-146 11.5t-123.5 70t-75 132.5q-24 99 -4 236zM1174 1739q0 17 11.5 29t28.5 12t29 -12t12 -29t-12 -29t-29 -12t-28.5 12t-11.5 29zM1325 1741q0 17 12 29 t29 12t29 -12t12 -29t-12 -29t-29 -12t-29 12t-12 29z" />
<glyph unicode="&#xcc;" horiz-adv-x="946" d="M-207 -559q84 91 222 163t276 95q223 351 425.5 764t297.5 751q37 146 6 193.5t-104 18.5t-164 -119q-138 -146 -252 -328q-130 -212 -197 -414q-23 -79 -34.5 -139t-14.5 -134t12 -142q2 -6 0.5 -6t-4.5 6q-38 107 -39.5 213.5t25.5 216.5q58 225 194 436 q126 192 283 321q90 72 158 103t114 20t60.5 -74t-2.5 -180q-31 -201 -154 -497t-285.5 -572t-306.5 -436q210 27 316 -74v-2q-112 39 -262.5 23.5t-308 -73.5t-261.5 -136v2zM852 1704q-1 9 11.5 15t26 5t15.5 -10q11 -81 80 -153q32 -25 66 -33q3 0 3 -1t-3 -1 q-32 -2 -74 20q-47 29 -83 71.5t-42 86.5z" />
<glyph unicode="&#xcd;" horiz-adv-x="946" d="M-207 -559q84 91 222 163t276 95q223 351 425.5 764t297.5 751q37 146 6 193.5t-104 18.5t-164 -119q-138 -146 -252 -328q-130 -212 -197 -414q-23 -79 -34.5 -139t-14.5 -134t12 -142q2 -6 0.5 -6t-4.5 6q-38 107 -39.5 213.5t25.5 216.5q58 225 194 436 q126 192 283 321q90 72 158 103t114 20t60.5 -74t-2.5 -180q-31 -201 -154 -497t-285.5 -572t-306.5 -436q210 27 316 -74v-2q-112 39 -262.5 23.5t-308 -73.5t-261.5 -136v2zM888 1568q0 1 3 1q33 7 65 33q69 72 80 153q2 9 16 10t26.5 -5t11.5 -15q-6 -44 -42 -86.5 t-83 -71.5q-42 -22 -74 -20q-3 0 -3 1z" />
<glyph unicode="&#xce;" horiz-adv-x="946" d="M-207 -559q84 91 222 163t276 95q223 351 425.5 764t297.5 751q37 146 6 193.5t-104 18.5t-164 -119q-138 -146 -252 -328q-130 -212 -197 -414q-23 -79 -34.5 -139t-14.5 -134t12 -142q2 -6 0.5 -6t-4.5 6q-38 107 -39.5 213.5t25.5 216.5q58 225 194 436 q126 192 283 321q90 72 158 103t114 20t60.5 -74t-2.5 -180q-31 -201 -154 -497t-285.5 -572t-306.5 -436q210 27 316 -74v-2q-112 39 -262.5 23.5t-308 -73.5t-261.5 -136v2zM737 1503q9 38 90 137t115 111q2 2 6 0q33 -13 111.5 -110.5t89.5 -135.5q2 -5 0 -5q-1 0 -2 1 q-34 18 -113.5 111.5t-89.5 132.5q-10 -40 -89 -133t-114 -111q-4 -2 -4 2z" />
<glyph unicode="&#xcf;" horiz-adv-x="946" d="M-207 -559q84 91 222 163t276 95q223 351 425.5 764t297.5 751q37 146 6 193.5t-104 18.5t-164 -119q-138 -146 -252 -328q-130 -212 -197 -414q-23 -79 -34.5 -139t-14.5 -134t12 -142q2 -6 0.5 -6t-4.5 6q-38 107 -39.5 213.5t25.5 216.5q58 225 194 436 q126 192 283 321q90 72 158 103t114 20t60.5 -74t-2.5 -180q-31 -201 -154 -497t-285.5 -572t-306.5 -436q210 27 316 -74v-2q-112 39 -262.5 23.5t-308 -73.5t-261.5 -136v2zM862 1585q0 17 12 29t29 12t29 -12t12 -29t-12 -29t-29 -12t-29 12t-12 29zM1014 1587 q0 17 12 29t29 12t29 -12t12 -29t-12 -29t-29 -12t-29 12t-12 29z" />
<glyph unicode="&#xd0;" horiz-adv-x="1847" d="M-97 -232q31 110 141 183q117 77 275 74q18 149 56 309q-53 4 -150 20q-9 3 -9 4t9 4q67 13 162 23q123 509 358 875q30 45 36.5 41t-17.5 -52q-171 -364 -307 -860q25 2 75 2q126 312 273 551q239 395 469 457q156 40 266 -44t143 -257q26 -166 -5 -328.5t-105 -347.5 q-78 -180 -171 -320.5t-222 -267.5q149 5 308 120t365 390q17 17 26 9.5t-1 -25.5q-114 -155 -215.5 -261t-191 -164t-166.5 -81t-158 -21q-2 -2 -23.5 -21.5t-33.5 -29.5q-362 -303 -795 -303q-250 0 -351 119q-74 87 -41 202zM-74 -284q-4 -107 91 -174q98 -69 276 -68 q406 3 758 319l18 17q-98 16 -258 75q-87 30 -126.5 43.5t-119.5 33t-151 26.5q-51 -155 -88 -283q-13 -45 -21 -55.5t-10.5 6t-1.5 53.5q3 132 22 285q-181 3 -295 -98q-89 -79 -94 -180zM326 -190q33 113 59 182h-23q-18 -76 -36 -182zM369 23q12 -3 24 -3q55 161 115 308 q-12 0 -34 1t-34 1q-42 -157 -71 -307zM424 16q72 -8 148.5 -26.5t125 -34t123.5 -41.5q179 -65 275 -76q133 132 229.5 277t183.5 334q74 177 110 331.5t23 313.5q-21 160 -113 238.5t-247 37.5q-219 -58 -453 -442q-137 -227 -264 -537q129 -3 283 -29q9 -3 9 -4t-9 -4 q-147 -26 -309 -26q-58 -144 -115 -312z" />
<glyph unicode="&#xd1;" horiz-adv-x="1376" d="M-1 -321q1 23 21 85q61 193 267.5 647t337.5 701q12 23 21 34.5t13 10t1.5 -16.5t-11.5 -40q-64 -183 -200.5 -508t-255.5 -572q68 112 131.5 213t153.5 238t169 249.5t169 229.5t163.5 196.5t143 130.5t116.5 52q31 0 43 -24t10 -56q-1 -48 -22 -126t-44.5 -145.5 t-69.5 -176.5t-68.5 -158t-72 -155.5t-50.5 -108.5q-50 -105 -153 -314t-153 -313q-55 -126 -66 -161q-42 -130 41 -92q17 8 38 22q44 28 99.5 79.5t117.5 121t117 134.5t120.5 150t104 135.5t91.5 122t60 80.5q14 15 24.5 9.5t0.5 -25.5q-10 -14 -74.5 -99.5t-113.5 -150.5 t-129.5 -165t-145 -173t-137 -142.5t-125.5 -103.5q-123 -80 -119 35q2 69 62 238q87 244 276 643q39 82 142 295t157 331q3 7 11.5 27t15 35t15.5 37.5t14.5 40t11 38t6 35t-1.5 27t-10 18.5t-21 6q-53 0 -136 -69.5t-175.5 -181t-197 -256t-200 -290t-184.5 -288.5 t-151 -246t-100 -167q-3 -6 -5 -9l-35 -57q-59 -99 -58 -57zM870 1436q19 53 50 84q33 25 67 28q26 2 53.5 -5t41.5 -13t48 -23q80 -47 123 -55q32 -3 56 8q28 13 59 51l3 4q1 -1 -1 -4q-18 -43 -51 -67q-30 -21 -68 -21q-53 2 -139 50q-3 2 -16 8.5l-18 9t-16.5 8t-18 7.5 t-16.5 5.5t-19.5 5t-18.5 1.5q-29 0 -55 -17q-36 -21 -62 -65q-2 -2 -2 0z" />
<glyph unicode="&#xd2;" horiz-adv-x="1380" d="M2.5 55.5q-4.5 103.5 8 194.5t40.5 201q49 163 116 290.5t171 243.5q57 126 156 252q52 60 102.5 102.5t116.5 79.5q88 44 171.5 61.5t171 1.5t154.5 -75q47 -44 72 -95.5t41 -123.5q13 -94 14.5 -170t-13.5 -166.5t-35 -165t-50 -164.5q-65 -180 -145.5 -326.5 t-192.5 -281.5q77 30 148 80q156 108 337 350q21 21 29.5 14t-4.5 -30q-182 -245 -346 -359q-102 -67 -201 -100q-131 -141 -250 -211q-133 -73 -248.5 -77.5t-203 64.5t-129.5 208q-26 99 -30.5 202.5zM59.5 56.5q-3.5 -103.5 16.5 -191.5q31 -133 111.5 -201.5t188.5 -63 t222 82.5q100 71 180 163q-151 -26 -278 36.5t-207 223.5q-40 91 -56.5 187.5t-14 184.5t19.5 196q14 67 26 110q-82 -143 -149 -352q-28 -106 -42 -189t-17.5 -186.5zM271 390.5q6 -141.5 55 -269.5q73 -168 200.5 -223.5t280.5 -16.5l16 21q215 279 351 645 q63 176 91.5 328.5t12.5 304.5q-19 129 -86 209q-61 60 -146 76.5t-164.5 -2.5t-156.5 -64q-108 -68 -201 -187q-45 -59 -88 -135q81 66 180 103q133 45 273 22q15 -3 14.5 -4.5t-14.5 0.5q-132 8 -260 -47q-114 -57 -221 -170q-29 -34 -41 -51q-44 -108 -76 -264 q-26 -134 -20 -275.5zM887 1745q-1 9 11.5 15t26 5t15.5 -10q11 -81 80 -153q32 -26 65 -33q3 0 3 -1t-3 -1q-31 -2 -73 20q-47 29 -83 71.5t-42 86.5z" />
<glyph unicode="&#xd3;" horiz-adv-x="1380" d="M2.5 55.5q-4.5 103.5 8 194.5t40.5 201q49 163 116 290.5t171 243.5q57 126 156 252q52 60 102.5 102.5t116.5 79.5q88 44 171.5 61.5t171 1.5t154.5 -75q47 -44 72 -95.5t41 -123.5q13 -94 14.5 -170t-13.5 -166.5t-35 -165t-50 -164.5q-65 -180 -145.5 -326.5 t-192.5 -281.5q77 30 148 80q156 108 337 350q21 21 29.5 14t-4.5 -30q-182 -245 -346 -359q-102 -67 -201 -100q-131 -141 -250 -211q-133 -73 -248.5 -77.5t-203 64.5t-129.5 208q-26 99 -30.5 202.5zM59.5 56.5q-3.5 -103.5 16.5 -191.5q31 -133 111.5 -201.5t188.5 -63 t222 82.5q100 71 180 163q-151 -26 -278 36.5t-207 223.5q-40 91 -56.5 187.5t-14 184.5t19.5 196q14 67 26 110q-82 -143 -149 -352q-28 -106 -42 -189t-17.5 -186.5zM271 390.5q6 -141.5 55 -269.5q73 -168 200.5 -223.5t280.5 -16.5l16 21q215 279 351 645 q63 176 91.5 328.5t12.5 304.5q-19 129 -86 209q-61 60 -146 76.5t-164.5 -2.5t-156.5 -64q-108 -68 -201 -187q-45 -59 -88 -135q81 66 180 103q133 45 273 22q15 -3 14.5 -4.5t-14.5 0.5q-132 8 -260 -47q-114 -57 -221 -170q-29 -34 -41 -51q-44 -108 -76 -264 q-26 -134 -20 -275.5zM927 1568q0 1 3 1q33 7 65 33q69 72 80 153q2 9 15.5 10t26 -5t11.5 -15q-6 -44 -41.5 -86.5t-82.5 -71.5q-42 -22 -74 -20q-3 0 -3 1z" />
<glyph unicode="&#xd4;" horiz-adv-x="1380" d="M2.5 55.5q-4.5 103.5 8 194.5t40.5 201q49 163 116 290.5t171 243.5q57 126 156 252q52 60 102.5 102.5t116.5 79.5q88 44 171.5 61.5t171 1.5t154.5 -75q47 -44 72 -95.5t41 -123.5q13 -94 14.5 -170t-13.5 -166.5t-35 -165t-50 -164.5q-65 -180 -145.5 -326.5 t-192.5 -281.5q77 30 148 80q156 108 337 350q21 21 29.5 14t-4.5 -30q-182 -245 -346 -359q-102 -67 -201 -100q-131 -141 -250 -211q-133 -73 -248.5 -77.5t-203 64.5t-129.5 208q-26 99 -30.5 202.5zM59.5 56.5q-3.5 -103.5 16.5 -191.5q31 -133 111.5 -201.5t188.5 -63 t222 82.5q100 71 180 163q-151 -26 -278 36.5t-207 223.5q-40 91 -56.5 187.5t-14 184.5t19.5 196q14 67 26 110q-82 -143 -149 -352q-28 -106 -42 -189t-17.5 -186.5zM271 390.5q6 -141.5 55 -269.5q73 -168 200.5 -223.5t280.5 -16.5l16 21q215 279 351 645 q63 176 91.5 328.5t12.5 304.5q-19 129 -86 209q-61 60 -146 76.5t-164.5 -2.5t-156.5 -64q-108 -68 -201 -187q-45 -59 -88 -135q81 66 180 103q133 45 273 22q15 -3 14.5 -4.5t-14.5 0.5q-132 8 -260 -47q-114 -57 -221 -170q-29 -34 -41 -51q-44 -108 -76 -264 q-26 -134 -20 -275.5zM788 1556q9 38 90 137t115 111q2 2 6 0q33 -13 111.5 -110t89.5 -135q1 -5 -2 -5q-34 18 -113.5 111.5t-89.5 132.5q-10 -40 -88.5 -133t-113.5 -111q-5 -2 -5 2z" />
<glyph unicode="&#xd5;" horiz-adv-x="1380" d="M2.5 55.5q-4.5 103.5 8 194.5t40.5 201q49 163 116 290.5t171 243.5q57 126 156 252q52 60 102.5 102.5t116.5 79.5q88 44 171.5 61.5t171 1.5t154.5 -75q47 -44 72 -95.5t41 -123.5q13 -94 14.5 -170t-13.5 -166.5t-35 -165t-50 -164.5q-65 -180 -145.5 -326.5 t-192.5 -281.5q77 30 148 80q156 108 337 350q21 21 29.5 14t-4.5 -30q-182 -245 -346 -359q-102 -67 -201 -100q-131 -141 -250 -211q-133 -73 -248.5 -77.5t-203 64.5t-129.5 208q-26 99 -30.5 202.5zM59.5 56.5q-3.5 -103.5 16.5 -191.5q31 -133 111.5 -201.5t188.5 -63 t222 82.5q100 71 180 163q-151 -26 -278 36.5t-207 223.5q-40 91 -56.5 187.5t-14 184.5t19.5 196q14 67 26 110q-82 -143 -149 -352q-28 -106 -42 -189t-17.5 -186.5zM271 390.5q6 -141.5 55 -269.5q73 -168 200.5 -223.5t280.5 -16.5l16 21q215 279 351 645 q63 176 91.5 328.5t12.5 304.5q-19 129 -86 209q-61 60 -146 76.5t-164.5 -2.5t-156.5 -64q-108 -68 -201 -187q-45 -59 -88 -135q81 66 180 103q133 45 273 22q15 -3 14.5 -4.5t-14.5 0.5q-132 8 -260 -47q-114 -57 -221 -170q-29 -34 -41 -51q-44 -108 -76 -264 q-26 -134 -20 -275.5zM719 1583q20 55 49 84q34 26 68 29q26 2 53.5 -5t41.5 -13t48 -23q83 -49 123 -56q29 -3 55 9q30 13 60 51l3 4q1 -1 -1 -4q-18 -44 -52 -68q-29 -20 -67 -20q-55 2 -139 49q-3 2 -16 8.5l-18 9t-16.5 8t-18 7.5t-16.5 5.5t-19.5 5t-18.5 1.5 q-32 0 -56 -16q-34 -20 -61 -66q-2 -2 -2 0z" />
<glyph unicode="&#xd6;" horiz-adv-x="1380" d="M2.5 55.5q-4.5 103.5 8 194.5t40.5 201q49 163 116 290.5t171 243.5q57 126 156 252q52 60 102.5 102.5t116.5 79.5q88 44 171.5 61.5t171 1.5t154.5 -75q47 -44 72 -95.5t41 -123.5q13 -94 14.5 -170t-13.5 -166.5t-35 -165t-50 -164.5q-65 -180 -145.5 -326.5 t-192.5 -281.5q77 30 148 80q156 108 337 350q21 21 29.5 14t-4.5 -30q-182 -245 -346 -359q-102 -67 -201 -100q-131 -141 -250 -211q-133 -73 -248.5 -77.5t-203 64.5t-129.5 208q-26 99 -30.5 202.5zM59.5 56.5q-3.5 -103.5 16.5 -191.5q31 -133 111.5 -201.5t188.5 -63 t222 82.5q100 71 180 163q-151 -26 -278 36.5t-207 223.5q-40 91 -56.5 187.5t-14 184.5t19.5 196q14 67 26 110q-82 -143 -149 -352q-28 -106 -42 -189t-17.5 -186.5zM271 390.5q6 -141.5 55 -269.5q73 -168 200.5 -223.5t280.5 -16.5l16 21q215 279 351 645 q63 176 91.5 328.5t12.5 304.5q-19 129 -86 209q-61 60 -146 76.5t-164.5 -2.5t-156.5 -64q-108 -68 -201 -187q-45 -59 -88 -135q81 66 180 103q133 45 273 22q15 -3 14.5 -4.5t-14.5 0.5q-132 8 -260 -47q-114 -57 -221 -170q-29 -34 -41 -51q-44 -108 -76 -264 q-26 -134 -20 -275.5zM872 1628q0 17 12 29t29 12t29 -12t12 -29t-12 -29t-29 -12t-29 12t-12 29zM1024 1630q0 17 12 29t29 12t29 -12t12 -29t-12 -29t-29 -12t-29 12t-12 29z" />
<glyph unicode="&#xd7;" horiz-adv-x="884" d="M147 137l3 6q102 97 249 207q-118 92 -237 215q-6 6 -5.5 6.5t9.5 -2.5q150 -72 295 -176q181 110 311 164q4 3 4 1t-4 -5q-120 -117 -250 -207q124 -96 242 -217q6 -6 4 -6q-1 1 -4 2q-146 66 -303 180q-157 -104 -311 -170q-2 1 -3 2z" />
<glyph unicode="&#xd8;" horiz-adv-x="1380" d="M2.5 55.5q-4.5 103.5 8 194.5t40.5 201q49 163 116 290.5t171 243.5q57 126 156 252q52 60 102.5 102.5t116.5 79.5q113 57 219 68l31 108q7 22 22 27t25.5 -7t5.5 -32l-27 -94q126 -3 221 -82q47 -44 72 -95.5t41 -123.5q13 -94 14.5 -170t-13.5 -166.5t-35 -165 t-50 -164.5q-65 -180 -145.5 -326.5t-192.5 -281.5q77 30 148 80q156 108 337 350q21 21 29.5 14t-4.5 -30q-182 -245 -346 -359q-102 -67 -201 -100q-131 -141 -250 -211q-171 -92 -309 -74q-25 -70 -43 -135h-2l33 137q-92 18 -159 84.5t-101 182.5q-26 99 -30.5 202.5z M59.5 56.5q-3.5 -103.5 16.5 -191.5q26 -108 84 -173t139 -83q33 122 104 344q-63 57 -110 153q-40 91 -56.5 187.5t-14 184.5t19.5 196q14 67 26 110q-82 -143 -149 -352q-28 -106 -42 -189t-17.5 -186.5zM271 390.5q6 -141.5 55 -269.5q37 -84 86 -139q66 199 216.5 612.5 t213.5 603.5q-108 0 -213 -47q-114 -57 -221 -170q-29 -34 -41 -51q-44 -108 -76 -264q-26 -134 -20 -275.5zM311 -395q135 -22 287 78q100 71 180 163q-210 -33 -352 86q-50 -132 -115 -327zM436 -41q145 -137 371 -78l16 21q215 279 351 645q63 176 91.5 328.5t12.5 304.5 q-19 129 -86 209q-83 81 -207 84q-54 -177 -88 -273q16 -4 0 -4q-78 -229 -252.5 -686.5t-208.5 -550.5zM436 1077q81 66 180 103q121 39 230 28q30 86 82 262q-105 -15 -203 -71q-108 -68 -201 -187q-45 -59 -88 -135z" />
<glyph unicode="&#xd9;" horiz-adv-x="1501" d="M0 766q0 99 33 187.5t96 185.5q66 99 142 175t178 146q168 106 280.5 121t154.5 -69.5t-10 -280.5q-24 -92 -63 -203t-64 -172t-81 -197q-4 -10 -16 -38q-141 -338 -153 -507q-14 -198 130 -202q38 -1 79.5 15t84 51t75.5 65t75 81.5t59.5 73.5t50.5 66q125 167 260 398 q61 101 162.5 297t152.5 284q22 36 29 35q8 -1 -10 -47q-51 -144 -163.5 -414t-146.5 -358q-107 -283 -157 -469q-27 -117 -31 -180q0 -20 4 -70q8 -32 4 -34t-14 30q-12 39 -15 74q-6 65 9 188q32 203 135 485l63 158q-135 -227 -258 -393q-37 -50 -65.5 -87t-80.5 -94.5 t-97 -94t-101 -64.5t-106 -27q-49 1 -84 19t-53 52t-28 75t-6 95.5t10.5 104.5t23 111t29 106.5t32 99.5t30 81.5t23.5 60.5q9 23 99 234t130 323q60 183 30.5 261t-132.5 58t-258 -132q-176 -137 -301 -318q-123 -186 -135 -346q-3 -81 31 -143q38 -67 114 -107 q6 -4 6 -4.5t-8 2.5q-86 36 -131 98q-44 65 -47 154zM1153 1520q-1 9 11.5 15t26 5t15.5 -10q12 -82 80 -154q32 -25 66 -33q3 0 3 -1t-3 -1q-30 -2 -74 21q-47 29 -83 71.5t-42 86.5z" />
<glyph unicode="&#xda;" horiz-adv-x="1501" d="M0 766q0 99 33 187.5t96 185.5q66 99 142 175t178 146q168 106 280.5 121t154.5 -69.5t-10 -280.5q-24 -92 -63 -203t-64 -172t-81 -197q-4 -10 -16 -38q-141 -338 -153 -507q-14 -198 130 -202q38 -1 79.5 15t84 51t75.5 65t75 81.5t59.5 73.5t50.5 66q125 167 260 398 q61 101 162.5 297t152.5 284q22 36 29 35q8 -1 -10 -47q-51 -144 -163.5 -414t-146.5 -358q-107 -283 -157 -469q-27 -117 -31 -180q0 -20 4 -70q8 -32 4 -34t-14 30q-12 39 -15 74q-6 65 9 188q32 203 135 485l63 158q-135 -227 -258 -393q-37 -50 -65.5 -87t-80.5 -94.5 t-97 -94t-101 -64.5t-106 -27q-49 1 -84 19t-53 52t-28 75t-6 95.5t10.5 104.5t23 111t29 106.5t32 99.5t30 81.5t23.5 60.5q9 23 99 234t130 323q60 183 30.5 261t-132.5 58t-258 -132q-176 -137 -301 -318q-123 -186 -135 -346q-3 -81 31 -143q38 -67 114 -107 q6 -4 6 -4.5t-8 2.5q-86 36 -131 98q-44 65 -47 154zM1152 1383q0 1 3 1q34 8 66 33q67 71 79 154q2 9 16 10t26.5 -5t11.5 -15q-6 -44 -42 -86.5t-83 -71.5q-44 -23 -74 -21q-3 0 -3 1z" />
<glyph unicode="&#xdb;" horiz-adv-x="1501" d="M0 766q0 99 33 187.5t96 185.5q66 99 142 175t178 146q168 106 280.5 121t154.5 -69.5t-10 -280.5q-24 -92 -63 -203t-64 -172t-81 -197q-4 -10 -16 -38q-141 -338 -153 -507q-14 -198 130 -202q38 -1 79.5 15t84 51t75.5 65t75 81.5t59.5 73.5t50.5 66q125 167 260 398 q61 101 162.5 297t152.5 284q22 36 29 35q8 -1 -10 -47q-51 -144 -163.5 -414t-146.5 -358q-107 -283 -157 -469q-27 -117 -31 -180q0 -20 4 -70q8 -32 4 -34t-14 30q-12 39 -15 74q-6 65 9 188q32 203 135 485l63 158q-135 -227 -258 -393q-37 -50 -65.5 -87t-80.5 -94.5 t-97 -94t-101 -64.5t-106 -27q-49 1 -84 19t-53 52t-28 75t-6 95.5t10.5 104.5t23 111t29 106.5t32 99.5t30 81.5t23.5 60.5q9 23 99 234t130 323q60 183 30.5 261t-132.5 58t-258 -132q-176 -137 -301 -318q-123 -186 -135 -346q-3 -81 31 -143q38 -67 114 -107 q6 -4 6 -4.5t-8 2.5q-86 36 -131 98q-44 65 -47 154zM1057 1425q9 38 90 137t115 111q2 2 6 0q33 -13 111 -110.5t89 -135.5q2 -5 0 -5q-1 0 -2 1q-34 18 -113 111.5t-89 132.5q-10 -40 -89 -133t-114 -111q-4 -2 -4 2z" />
<glyph unicode="&#xdc;" horiz-adv-x="1501" d="M0 766q0 99 33 187.5t96 185.5q66 99 142 175t178 146q168 106 280.5 121t154.5 -69.5t-10 -280.5q-24 -92 -63 -203t-64 -172t-81 -197q-4 -10 -16 -38q-141 -338 -153 -507q-14 -198 130 -202q38 -1 79.5 15t84 51t75.5 65t75 81.5t59.5 73.5t50.5 66q125 167 260 398 q61 101 162.5 297t152.5 284q22 36 29 35q8 -1 -10 -47q-51 -144 -163.5 -414t-146.5 -358q-107 -283 -157 -469q-27 -117 -31 -180q0 -20 4 -70q8 -32 4 -34t-14 30q-12 39 -15 74q-6 65 9 188q32 203 135 485l63 158q-135 -227 -258 -393q-37 -50 -65.5 -87t-80.5 -94.5 t-97 -94t-101 -64.5t-106 -27q-49 1 -84 19t-53 52t-28 75t-6 95.5t10.5 104.5t23 111t29 106.5t32 99.5t30 81.5t23.5 60.5q9 23 99 234t130 323q60 183 30.5 261t-132.5 58t-258 -132q-176 -137 -301 -318q-123 -186 -135 -346q-3 -81 31 -143q38 -67 114 -107 q6 -4 6 -4.5t-8 2.5q-86 36 -131 98q-44 65 -47 154zM1118 1554q0 17 12 29t29 12t29 -12t12 -29t-12 -29t-29 -12t-29 12t-12 29zM1270 1556q0 17 12 29t29 12t29 -12t12 -29t-12 -28.5t-29 -11.5t-29 11.5t-12 28.5z" />
<glyph unicode="&#xdd;" horiz-adv-x="1759" d="M2 -715q13 72 64 146q95 136 300 253.5t511 176.5q87 15 196 43q118 190 262 479q49 103 287 690q-162 -305 -317 -508q-175 -225 -342 -317q-91 -51 -187 -51q-82 2 -136.5 51t-61.5 145q-4 67 13 148.5t35 133t54 140.5q11 27 80.5 188t99.5 248q36 110 27.5 170 t-45 81.5t-96.5 9.5t-128 -46t-139 -86q-177 -135 -301 -317q-61 -93 -95.5 -173t-41.5 -171q0 -85 31 -146q41 -65 112 -104q9 -5 9 -6t-9 2q-84 35 -129 98q-44 64 -47 156q0 98 32.5 185.5t94.5 187.5q70 101 146 177t176 144q80 50 153 80.5t139 38t107.5 -20t58 -92.5 t-9.5 -180q-10 -45 -23 -89t-33 -98t-30.5 -81.5t-39 -96t-34.5 -83.5q-35 -84 -53.5 -132.5t-40 -126t-26.5 -139.5q-1 -86 41 -127t112 -41q82 -3 174 49q156 84 328 310q262 339 510 917q10 24 21.5 31t18 -5.5t1.5 -39.5q-33 -156 -203.5 -580.5t-230.5 -552.5 q-125 -258 -228 -424q101 29 201 78q230 110 397 336q15 15 25 9t0 -25q-178 -234 -408 -346q-105 -51 -239 -91q-130 -212 -295 -397q-358 -391 -686 -391q-84 0 -129 50.5t-33 131.5zM33 -721q-12 -70 29 -111.5t114 -41.5q70 -1 145 25t140.5 66t132 96t117 107.5 t98.5 108.5q119 146 242 338q-121 -26 -170 -35q-300 -59 -500 -172.5t-291 -245.5q-48 -71 -57 -135zM1193 1424q0 1 3 1q34 8 66 33q67 71 79 154q2 9 16 10t26.5 -5t11.5 -15q-6 -44 -42 -86.5t-83 -71.5q-44 -23 -74 -21q-3 0 -3 1z" />
<glyph unicode="&#xdf;" horiz-adv-x="935" d="M-287 -571q157 4 287 43t274 120q129 76 226 159.5t182 195.5q65 89 96 184q23 89 2 152q-11 31 -37 57q-29 29 -65 45q-86 38 -199 41q-33 4 -30.5 21.5t32.5 31.5q157 87 256 174q95 84 129 164q14 29 17 60q0 20 -9 41q-10 17 -24 24q-16 8 -39 8q-33 0 -57 -14 q-28 -11 -66 -41q-62 -49 -145 -154q-131 -170 -299 -477q-41 -80 -165 -354t-181 -371q-3 -3 -3.5 -3t1.5 5q31 97 144.5 361.5t170.5 378.5q144 290 291 493q89 111 153 164q58 39 78 47q43 19 78 19q33 0 66 -17q28 -17 45 -45q12 -28 12 -68q-2 -30 -23 -77 q-24 -51 -60 -90t-89 -82q-113 -83 -262 -146q111 -6 200 -47q43 -18 82 -57q29 -29 47 -76q25 -77 -4 -182q-35 -100 -108 -197q-89 -113 -191.5 -196t-236.5 -156q-151 -77 -285 -111t-291 -30q-4 0 0 2z" />
<glyph unicode="&#xe0;" horiz-adv-x="550" d="M-24 228q-7 66 49 146q63 90 150 110q17 4 34 5q39 0 67 -22q37 -37 17 -105q18 0 31 -15t4 -28q-25 -37 -71 -168.5t-13 -132.5q37 -1 151.5 128t161.5 198q7 7 15.5 6t11 -8t-1.5 -14q-32 -47 -88.5 -116t-132 -140t-113.5 -72q-20 0 -30.5 17.5t-10.5 46.5t4 62 t12.5 67t16 58t12.5 38q-6 -5 -27.5 -26.5t-30.5 -29.5t-29 -24.5t-34.5 -23.5t-35 -14t-40.5 -7q-71 -1 -79 64zM13 225q-4 -43 36 -41q50 3 121 59t121 119q0 66 -31 87q-30 13 -49 8q-60 -10 -129 -97q-63 -79 -69 -135zM68 721q-1 9 7.5 13.5t18.5 2t12 -11.5 q4 -26 21 -55.5t31 -45.5t43 -46q32 -26 65 -33q3 0 3 -1t-3 -1q-31 -2 -73 20q-47 29 -83 71.5t-42 86.5z" />
<glyph unicode="&#xe1;" horiz-adv-x="550" d="M-24 228q-7 66 49 146q63 90 150 110q17 4 34 5q39 0 67 -22q37 -37 17 -105q18 0 31 -15t4 -28q-25 -37 -71 -168.5t-13 -132.5q37 -1 151.5 128t161.5 198q7 7 15.5 6t11 -8t-1.5 -14q-32 -47 -88.5 -116t-132 -140t-113.5 -72q-20 0 -30.5 17.5t-10.5 46.5t4 62 t12.5 67t16 58t12.5 38q-6 -5 -27.5 -26.5t-30.5 -29.5t-29 -24.5t-34.5 -23.5t-35 -14t-40.5 -7q-71 -1 -79 64zM13 225q-4 -43 36 -41q50 3 121 59t121 119q0 66 -31 87q-30 13 -49 8q-60 -10 -129 -97q-63 -79 -69 -135zM81 544q0 1 3 1q34 8 66 33q28 29 42.5 46 t31 45.5t20.5 55.5q2 9 12 11.5t19 -2t8 -13.5q-6 -44 -42 -86.5t-83 -71.5q-42 -22 -74 -20q-3 0 -3 1z" />
<glyph unicode="&#xe2;" horiz-adv-x="550" d="M-27 508q9 38 90 137t115 111q2 2 6 0q33 -13 111.5 -110.5t89.5 -135.5q2 -5 0 -5q-1 0 -2 1q-34 18 -113.5 111.5t-89.5 132.5q-10 -40 -89 -133t-114 -111q-4 -2 -4 2zM-24 228q-7 66 49 146q63 90 150 110q17 4 34 5q39 0 67 -22q37 -37 17 -105q18 0 31 -15t4 -28 q-25 -37 -71 -168.5t-13 -132.5q37 -1 151.5 128t161.5 198q7 7 15.5 6t11 -8t-1.5 -14q-32 -47 -88.5 -116t-132 -140t-113.5 -72q-20 0 -30.5 17.5t-10.5 46.5t4 62t12.5 67t16 58t12.5 38q-6 -5 -27.5 -26.5t-30.5 -29.5t-29 -24.5t-34.5 -23.5t-35 -14t-40.5 -7 q-71 -1 -79 64zM13 225q-4 -43 36 -41q50 3 121 59t121 119q0 66 -31 87q-30 13 -49 8q-60 -10 -129 -97q-63 -79 -69 -135z" />
<glyph unicode="&#xe3;" horiz-adv-x="550" d="M-49 559q20 55 49 84q34 26 68 29q26 2 53.5 -5t41.5 -13t48 -23q83 -49 123 -56q29 -3 55 9q30 13 60 51l3 4q1 -1 -1 -4q-18 -44 -52 -68q-29 -20 -67 -20q-55 2 -139 49q-3 2 -16 8.5l-18 9t-16.5 8t-18 7.5t-16.5 5.5t-19.5 5t-18.5 1.5q-32 0 -56 -16 q-34 -20 -61 -66q-2 -2 -2 0zM-24 228q-7 66 49 146q63 90 150 110q17 4 34 5q39 0 67 -22q37 -37 17 -105q18 0 31 -15t4 -28q-25 -37 -71 -168.5t-13 -132.5q37 -1 151.5 128t161.5 198q7 7 15.5 6t11 -8t-1.5 -14q-32 -47 -88.5 -116t-132 -140t-113.5 -72 q-20 0 -30.5 17.5t-10.5 46.5t4 62t12.5 67t16 58t12.5 38q-6 -5 -27.5 -26.5t-30.5 -29.5t-29 -24.5t-34.5 -23.5t-35 -14t-40.5 -7q-71 -1 -79 64zM13 225q-4 -43 36 -41q50 3 121 59t121 119q0 66 -31 87q-30 13 -49 8q-60 -10 -129 -97q-63 -79 -69 -135z" />
<glyph unicode="&#xe4;" horiz-adv-x="550" d="M-24 228q-7 66 49 146q63 90 150 110q17 4 34 5q39 0 67 -22q37 -37 17 -105q18 0 31 -15t4 -28q-25 -37 -71 -168.5t-13 -132.5q37 -1 151.5 128t161.5 198q7 7 15.5 6t11 -8t-1.5 -14q-32 -47 -88.5 -116t-132 -140t-113.5 -72q-20 0 -30.5 17.5t-10.5 46.5t4 62 t12.5 67t16 58t12.5 38q-6 -5 -27.5 -26.5t-30.5 -29.5t-29 -24.5t-34.5 -23.5t-35 -14t-40.5 -7q-71 -1 -79 64zM13 225q-4 -43 36 -41q50 3 121 59t121 119q0 66 -31 87q-30 13 -49 8q-60 -10 -129 -97q-63 -79 -69 -135zM74 592q0 17 12 29t29 12t29 -12t12 -29t-12 -29 t-29 -12t-29 12t-12 29zM225 594q0 17 12 29t29 12t29 -12t12 -29t-12 -29t-29 -12t-29 12t-12 29z" />
<glyph unicode="&#xe5;" horiz-adv-x="550" d="M-24 228q-7 66 49 146q63 90 150 110q17 4 34 5q39 0 67 -22q37 -37 17 -105q18 0 31 -15t4 -28q-25 -37 -71 -168.5t-13 -132.5q37 -1 151.5 128t161.5 198q7 7 15.5 6t11 -8t-1.5 -14q-32 -47 -88.5 -116t-132 -140t-113.5 -72q-20 0 -30.5 17.5t-10.5 46.5t4 62 t12.5 67t16 58t12.5 38q-6 -5 -27.5 -26.5t-30.5 -29.5t-29 -24.5t-34.5 -23.5t-35 -14t-40.5 -7q-71 -1 -79 64zM13 225q-4 -43 36 -41q50 3 121 59t121 119q0 66 -31 87q-30 13 -49 8q-60 -10 -129 -97q-63 -79 -69 -135zM109 596q-2 14 2 45q1 11 18 49q26 51 74 78 q29 16 49 16q29 3 53 -8q-24 5 -51 0q-20 -3 -45 -18q-43 -34 -62 -76q-13 -34 -14 -45q-3 -17 0 -37l6 -12l8 -8q3 -3 11 -7h18q16 0 31 5q3 2 22 16q21 21 37 53q12 30 15 66q3 25 -7 51q0 4 2 2q15 -27 15 -55q3 -38 -8 -70q-12 -41 -37 -63q-11 -14 -29 -23 q-19 -8 -39 -8t-24 2q-13 3 -23 10q-10 10 -14 16q-2 4 -4 10.5t-4 10.5z" />
<glyph unicode="&#xe6;" horiz-adv-x="956" d="M-26 228q-7 66 49 146q63 90 150 110q17 4 34 5q39 0 67 -22q37 -37 17 -105q18 0 31 -15t4 -28q-25 -37 -71 -168.5t-13 -132.5q45 -2 229 218q40 98 109 172.5t127 74.5q40 -1 55 -27t7 -60.5t-30 -69.5q-27 -38 -69.5 -65.5t-87.5 -33.5q-21 -3 -39 0q-2 0 -5.5 1 t-5.5 1q-19 -43 -29.5 -80t-11.5 -68t14 -49t46 -18q74 -1 212 121t202 209q9 11 20 3.5t4 -19.5q-36 -49 -109.5 -124.5t-166.5 -144.5t-146 -69q-80 1 -106.5 49t-11.5 125q-144 -164 -203 -164q-20 0 -30.5 17.5t-10.5 46.5t4 62t12.5 67t16 58t12.5 38 q-6 -5 -27.5 -26.5t-30.5 -29.5t-29 -24.5t-34.5 -23.5t-35 -14t-40.5 -7q-71 -1 -79 64zM11 225q-4 -43 36 -41q50 3 121 59t121 119q0 66 -31 87q-30 13 -49 8q-60 -10 -129 -97q-63 -79 -69 -135zM537 238h6l32 8q88 37 148 94q21 22 28.5 50.5t-3.5 47t-39 13.5 q-33 -7 -82.5 -70t-89.5 -143z" />
<glyph unicode="&#xe7;" horiz-adv-x="448" d="M-104 72q2 71 50 169t117.5 170t124.5 72q16 0 31 -6q18 -11 25 -22q8 -13 8 -35q-3 -20 -12 -41q-2 -4 -2 0q3 23 -2 41q-4 15 -11 22l-16 9q-10 3 -19 0q-35 -8 -96.5 -87t-110.5 -174.5t-53 -146.5q-3 -74 56 -78q78 -2 204 98q74 60 146.5 139t118.5 142q13 13 23 6 t1 -22q-49 -68 -121 -147.5t-149 -139.5q-111 -90 -203 -100q0 -3 -2.5 -9.5t-3.5 -11.5q38 0 42 -34q5 -36 -30 -65q-25 -21 -59 -22q-5 0 -7 3.5t-0.5 7t7.5 4.5q33 3 49 45q10 31 -2 37q-3 0 -12 -2.5t-13 -2.5q-12 -1 -15 7.5t5 17.5q11 11 15 23q-87 7 -84 133z" />
<glyph unicode="&#xe8;" horiz-adv-x="434" d="M-79 94q-8 93 65 218q65 110 140 153q31 18 58 18q40 -1 55 -27t7.5 -61t-29.5 -69q-27 -38 -70 -65.5t-88 -33.5q-21 -3 -39 0q-2 0 -5 1t-5 1q-19 -43 -29.5 -80t-11.5 -68t14 -49t46 -18q74 -1 211.5 121t201.5 209q9 11 20.5 3.5t4.5 -19.5q-36 -49 -109.5 -124.5 t-166.5 -144.5t-146 -69q-115 1 -124 104zM14 238h6l33 8q88 37 148 94q21 22 28.5 50.5t-4 47t-39.5 13.5q-33 -7 -82.5 -70t-89.5 -143zM49 721q-1 9 8 13.5t19 2t12 -11.5q4 -27 20.5 -55.5t31 -45.5t42.5 -46q32 -25 66 -33q3 0 3 -1t-3 -1q-32 -2 -74 20 q-47 29 -83 71.5t-42 86.5z" />
<glyph unicode="&#xe9;" horiz-adv-x="434" d="M-79 94q-8 93 65 218q65 110 140 153q31 18 58 18q40 -1 55 -27t7.5 -61t-29.5 -69q-27 -38 -70 -65.5t-88 -33.5q-21 -3 -39 0q-2 0 -5 1t-5 1q-19 -43 -29.5 -80t-11.5 -68t14 -49t46 -18q74 -1 211.5 121t201.5 209q9 11 20.5 3.5t4.5 -19.5q-36 -49 -109.5 -124.5 t-166.5 -144.5t-146 -69q-115 1 -124 104zM14 238h6l33 8q88 37 148 94q21 22 28.5 50.5t-4 47t-39.5 13.5q-33 -7 -82.5 -70t-89.5 -143zM46 544q0 1 3 1q34 8 66 33q28 29 42.5 46t31 45.5t20.5 55.5q2 9 12 11.5t19 -2t8 -13.5q-6 -44 -42 -86.5t-83 -71.5 q-42 -22 -74 -20q-3 0 -3 1z" />
<glyph unicode="&#xea;" horiz-adv-x="434" d="M-79 94q-8 93 65 218q65 110 140 153q31 18 58 18q40 -1 55 -27t7.5 -61t-29.5 -69q-27 -38 -70 -65.5t-88 -33.5q-21 -3 -39 0q-2 0 -5 1t-5 1q-19 -43 -29.5 -80t-11.5 -68t14 -49t46 -18q74 -1 211.5 121t201.5 209q9 11 20.5 3.5t4.5 -19.5q-36 -49 -109.5 -124.5 t-166.5 -144.5t-146 -69q-115 1 -124 104zM-61 487q9 38 89.5 137t114.5 111q2 2 7 0q33 -13 111 -110.5t89 -135.5q2 -5 0 -5q-1 0 -2 1q-34 18 -113.5 111.5t-89.5 132.5q-10 -40 -88.5 -133t-113.5 -111q-4 -2 -4 2zM14 238h6l33 8q88 37 148 94q21 22 28.5 50.5t-4 47 t-39.5 13.5q-33 -7 -82.5 -70t-89.5 -143z" />
<glyph unicode="&#xeb;" horiz-adv-x="434" d="M-79 94q-8 93 65 218q65 110 140 153q31 18 58 18q40 -1 55 -27t7.5 -61t-29.5 -69q-27 -38 -70 -65.5t-88 -33.5q-21 -3 -39 0q-2 0 -5 1t-5 1q-19 -43 -29.5 -80t-11.5 -68t14 -49t46 -18q74 -1 211.5 121t201.5 209q9 11 20.5 3.5t4.5 -19.5q-36 -49 -109.5 -124.5 t-166.5 -144.5t-146 -69q-115 1 -124 104zM14 238h6l33 8q88 37 148 94q21 22 28.5 50.5t-4 47t-39.5 13.5q-33 -7 -82.5 -70t-89.5 -143zM33 592q0 17 12 29t29 12t29 -12t12 -29t-12 -29t-29 -12t-29 12t-12 29zM184 594q0 17 12 29t29 12t29 -12t12 -29t-12 -29t-29 -12 t-29 12t-12 29z" />
<glyph unicode="&#xec;" horiz-adv-x="417" d="M-78 111q33 163 96 247q20 20 45.5 -0.5t10.5 -42.5q-53 -68 -101 -215q-9 -32 -13.5 -62t-1.5 -57t15 -41.5t40 -10.5t69 30q99 63 307 340l35 45q10 10 20 2t2 -20l-32 -45q-67 -86 -102 -130t-104 -117.5t-118 -103.5q-71 -43 -111 -21t-54 77t-3 125zM-33 602 q-1 9 8 13.5t19 2t12 -11.5q4 -27 20.5 -55.5t31 -45.5t42.5 -46q32 -25 66 -33q3 0 3 -1t-3 -1q-32 -2 -74 20q-47 29 -83 71.5t-42 86.5z" />
<glyph unicode="&#xed;" horiz-adv-x="417" d="M-78 111q33 163 96 247q20 20 45.5 -0.5t10.5 -42.5q-53 -68 -101 -215q-9 -32 -13.5 -62t-1.5 -57t15 -41.5t40 -10.5t69 30q99 63 307 340l35 45q10 10 20 2t2 -20l-32 -45q-67 -86 -102 -130t-104 -117.5t-118 -103.5q-71 -43 -111 -21t-54 77t-3 125zM-34 425 q0 1 3 1q34 8 66 33q28 29 42.5 46t31 45.5t20.5 55.5q2 9 12 11.5t19 -2t8 -13.5q-6 -44 -42 -86.5t-83 -71.5q-42 -22 -74 -20q-3 0 -3 1z" />
<glyph unicode="&#xee;" horiz-adv-x="417" d="M-78 111q33 163 96 247q20 20 45.5 -0.5t10.5 -42.5q-53 -68 -101 -215q-9 -32 -13.5 -62t-1.5 -57t15 -41.5t40 -10.5t69 30q99 63 307 340l35 45q10 10 20 2t2 -20l-32 -45q-67 -86 -102 -130t-104 -117.5t-118 -103.5q-71 -43 -111 -21t-54 77t-3 125z" />
<glyph unicode="&#xef;" horiz-adv-x="417" d="M-78 111q33 163 96 247q20 20 45.5 -0.5t10.5 -42.5q-53 -68 -101 -215q-9 -32 -13.5 -62t-1.5 -57t15 -41.5t40 -10.5t69 30q99 63 307 340l35 45q10 10 20 2t2 -20l-32 -45q-67 -86 -102 -130t-104 -117.5t-118 -103.5q-71 -43 -111 -21t-54 77t-3 125zM-49 510 q0 17 12 29t29 12t29 -12t12 -29t-12 -29t-29 -12t-29 12t-12 29zM102 512q0 17 12 29t29 12t29 -12t12 -29t-12 -29t-29 -12t-29 12t-12 29z" />
<glyph unicode="&#xf1;" horiz-adv-x="817" d="M-57 46.5q-2 17.5 2.5 48t12 67t17.5 76t19 73.5t15.5 61.5t8.5 37.5q4 28 33 34q27 5 36 -13q5 -9 1 -21q-6 -16 -24 -65t-33 -90.5t-31 -86.5t-25 -71.5t-8 -26.5q6 0 53 55q14 16 75.5 99t114.5 150.5t117.5 127t102.5 59.5q71 0 3 -214q-19 -61 -120 -325 q-91 -240 -84 -298q3 -28 25 -27q24 0 84 53q85 79 223.5 252.5t239.5 312.5q18 23 22 29q15 15 25 8t0 -26q-20 -24 -23 -29q-333 -445 -475 -571q-60 -50 -92 -50q-133 0 -45 271q32 96 143 352q82 187 78 222q-2 14 -12 14q-38 2 -115.5 -85t-168 -212.5t-95.5 -131.5 q-67 -77 -88 -77q-10 0 -12 17.5zM39 674q20 55 49 84q32 25 68 28q26 2 53.5 -5t41.5 -13t48 -23q80 -47 123 -55q31 -3 55 8q29 13 60 52l3 4q1 -1 -1 -4q-18 -44 -52 -68q-29 -20 -67 -20q-55 2 -139 49q-3 2 -16 8.5l-18 9t-16.5 8t-18 7.5t-16.5 5.5t-19.5 5t-18.5 1.5 q-30 0 -56 -17q-35 -21 -61 -65q-2 -2 -2 0z" />
<glyph unicode="&#xf2;" d="M-66 127q17 152 101 252q19 20 43.5 -3.5t7.5 -43.5q-64 -74 -106 -213q-13 -49 -13 -81t10 -45t27 -13q47 1 92 53.5t78 132.5q-50 40 -68.5 111.5t5.5 142.5q9 25 29.5 41t43.5 16q25 4 43 -20q28 -39 24 -115t-36 -158q66 -56 164 25q46 36 119 135q13 13 23 6t1 -22 q-63 -93 -125 -142q-104 -86 -196 -39q-37 -81 -87 -133.5t-104 -52.5q-41 0 -63 41.5t-13 124.5zM53 721q-1 9 8 13.5t19 2t12 -11.5q4 -27 20.5 -55.5t31 -45.5t42.5 -46q32 -25 66 -33q3 0 3 -1t-3 -1q-32 -2 -74 20q-47 29 -83 71.5t-42 86.5zM141 414q-3 -130 49 -203 q16 47 23 89.5t5 71.5t-9.5 50t-17.5 31t-21 10q-29 -4 -29 -49z" />
<glyph unicode="&#xf3;" d="M-66 127q17 152 101 252q19 20 43.5 -3.5t7.5 -43.5q-64 -74 -106 -213q-13 -49 -13 -81t10 -45t27 -13q47 1 92 53.5t78 132.5q-50 40 -68.5 111.5t5.5 142.5q9 25 29.5 41t43.5 16q25 4 43 -20q28 -39 24 -115t-36 -158q66 -56 164 25q46 36 119 135q13 13 23 6t1 -22 q-63 -93 -125 -142q-104 -86 -196 -39q-37 -81 -87 -133.5t-104 -52.5q-41 0 -63 41.5t-13 124.5zM54 544q0 1 3 1q34 8 66 33q28 29 42.5 46t31 45.5t20.5 55.5q2 9 12 11.5t19 -2t8 -13.5q-6 -44 -42 -86.5t-83 -71.5q-42 -22 -74 -20q-3 0 -3 1zM141 414q-3 -130 49 -203 q16 47 23 89.5t5 71.5t-9.5 50t-17.5 31t-21 10q-29 -4 -29 -49z" />
<glyph unicode="&#xf4;" d="M-66 127q17 152 101 252q19 20 43.5 -3.5t7.5 -43.5q-64 -74 -106 -213q-13 -49 -13 -81t10 -45t27 -13q47 1 92 53.5t78 132.5q-50 40 -68.5 111.5t5.5 142.5q9 25 29.5 41t43.5 16q25 4 43 -20q28 -39 24 -115t-36 -158q66 -56 164 25q46 36 119 135q13 13 23 6t1 -22 q-63 -93 -125 -142q-104 -86 -196 -39q-37 -81 -87 -133.5t-104 -52.5q-41 0 -63 41.5t-13 124.5zM-55 475q9 38 90 137t115 111q2 2 6 0q33 -13 111 -110.5t89 -135.5q2 -5 0 -5q-1 0 -2 1q-34 18 -113 111.5t-89 132.5q-10 -40 -89 -133t-114 -111q-4 -2 -4 2zM141 414 q-3 -130 49 -203q16 47 23 89.5t5 71.5t-9.5 50t-17.5 31t-21 10q-29 -4 -29 -49z" />
<glyph unicode="&#xf5;" d="M-82 559q20 55 49 84q34 26 68 29q26 2 53.5 -5t41.5 -13t48 -23q83 -49 123 -56q29 -3 55 9q30 13 60 51l3 4q1 -1 -1 -4q-18 -45 -51 -68q-29 -20 -68 -20q-55 2 -139 49q-3 2 -16 8.5l-18 9t-16.5 8t-18 7.5t-16.5 5.5t-19.5 5t-18.5 1.5q-31 0 -55 -16 q-35 -21 -62 -66q-2 -2 -2 0zM-66 127q17 152 101 252q19 20 43.5 -3.5t7.5 -43.5q-64 -74 -106 -213q-13 -49 -13 -81t10 -45t27 -13q47 1 92 53.5t78 132.5q-50 40 -68.5 111.5t5.5 142.5q9 25 29.5 41t43.5 16q25 4 43 -20q28 -39 24 -115t-36 -158q66 -56 164 25 q46 36 119 135q13 13 23 6t1 -22q-63 -93 -125 -142q-104 -86 -196 -39q-37 -81 -87 -133.5t-104 -52.5q-41 0 -63 41.5t-13 124.5zM141 414q-3 -130 49 -203q16 47 23 89.5t5 71.5t-9.5 50t-17.5 31t-21 10q-29 -4 -29 -49z" />
<glyph unicode="&#xf6;" d="M-66 127q17 152 101 252q19 20 43.5 -3.5t7.5 -43.5q-64 -74 -106 -213q-13 -49 -13 -81t10 -45t27 -13q47 1 92 53.5t78 132.5q-50 40 -68.5 111.5t5.5 142.5q9 25 29.5 41t43.5 16q25 4 43 -20q28 -39 24 -115t-36 -158q66 -56 164 25q46 36 119 135q13 13 23 6t1 -22 q-63 -93 -125 -142q-104 -86 -196 -39q-37 -81 -87 -133.5t-104 -52.5q-41 0 -63 41.5t-13 124.5zM33 600q0 17 12 29t29 12t29 -12t12 -29t-12 -29t-29 -12t-29 12t-12 29zM141 414q-3 -130 49 -203q16 47 23 89.5t5 71.5t-9.5 50t-17.5 31t-21 10q-29 -4 -29 -49zM184 602 q0 17 12 29t29 12t29 -12t12 -29t-12 -29t-29 -12t-29 12t-12 29z" />
<glyph unicode="&#xf7;" horiz-adv-x="794" d="M67 344l3 2q300 56 600 0q6 -2 6 -2.5t-6 -3.5q-306 -51 -600 4h-3zM266 168q0 26 18.5 43.5t43.5 17.5q26 0 43.5 -17.5t17.5 -43.5q0 -25 -17.5 -43.5t-43.5 -18.5q-25 0 -43.5 18.5t-18.5 43.5zM369 510q0 25 17.5 43t43.5 18q25 0 43.5 -18t18.5 -43 q0 -26 -18.5 -43.5t-43.5 -17.5q-26 0 -43.5 17.5t-17.5 43.5z" />
<glyph unicode="&#xf8;" d="M-66 127q17 152 101 252q19 20 43.5 -3.5t7.5 -43.5q-64 -74 -106 -213q-13 -49 -13 -81t10 -45t27 -13q7 0 23 4q34 146 79 286q-21 80 5 150q17 46 59 55q9 31 29.5 109t29.5 110q7 22 22 27t26 -7t6 -32q-15 -56 -38 -136t-24 -83l6 -6q28 -39 24 -115t-36 -158 q66 -56 164 25q46 36 119 135q13 13 23 6t1 -22q-63 -93 -125 -142q-104 -86 -196 -39q-70 -153 -160 -182l-61 -198q-1 -1 -3 0l43 194h-10q-41 0 -63 41.5t-13 124.5zM51 -4q70 40 123 170q-22 16 -41 45q-50 -124 -82 -215zM141 375l25 88q-25 -8 -25 -49v-39zM160 274 q13 -40 30 -63q45 133 19 209q-8 -27 -49 -146z" />
<glyph unicode="&#xf9;" horiz-adv-x="372" d="M-31.5 176q1.5 28 2.5 45q5 27 31 121q5 17 19 20.5t24.5 -7t5.5 -27.5l-12 -30q-66 -160 -38 -175q5 -3 11 -2q28 3 99.5 91.5t87.5 127.5q6 15 25 2q20 -14 14 -29q-5 -12 -16 -31t-17.5 -35.5t-9.5 -35.5q0 -33 74 23q11 8 14 10q73 62 96 100q17 15 26 9t-2 -25 q-25 -44 -102 -107q-19 -14 -31 -21.5t-34 -18t-38.5 -5.5t-25.5 25q-4 9 -4 49q-102 -150 -160 -152q-21 -1 -31 24.5t-8.5 53.5zM33 618q-1 9 8 14t19 2.5t12 -11.5q4 -27 20.5 -55.5t31.5 -46.5t42 -46q32 -26 65 -33q3 0 3 -1t-3 -1q-29 -2 -73 21q-48 29 -83.5 71 t-41.5 86z" />
<glyph unicode="&#xfa;" horiz-adv-x="372" d="M-31.5 176q1.5 28 2.5 45q5 27 31 121q5 17 19 20.5t24.5 -7t5.5 -27.5l-12 -30q-66 -160 -38 -175q5 -3 11 -2q28 3 99.5 91.5t87.5 127.5q6 15 25 2q20 -14 14 -29q-5 -12 -16 -31t-17.5 -35.5t-9.5 -35.5q0 -33 74 23q11 8 14 10q73 62 96 100q17 15 26 9t-2 -25 q-25 -44 -102 -107q-19 -14 -31 -21.5t-34 -18t-38.5 -5.5t-25.5 25q-4 9 -4 49q-102 -150 -160 -152q-21 -1 -31 24.5t-8.5 53.5zM26 441q0 1 3 1q33 7 65 33q27 28 42 46t31.5 46.5t20.5 55.5q2 9 12 11.5t19 -2.5t8 -14q-6 -44 -41.5 -86t-83.5 -71q-44 -23 -73 -21 q-3 0 -3 1z" />
<glyph unicode="&#xfb;" horiz-adv-x="372" d="M-51 434q9 38 90 137t115 111q2 2 6 0q33 -13 111 -110.5t89 -135.5q2 -5 0 -5q-1 0 -2 1q-34 18 -113 111.5t-89 132.5q-10 -40 -89 -133t-114 -111q-4 -2 -4 2zM-31.5 176q1.5 28 2.5 45q5 27 31 121q5 17 19 20.5t24.5 -7t5.5 -27.5l-12 -30q-66 -160 -38 -175 q5 -3 11 -2q28 3 99.5 91.5t87.5 127.5q6 15 25 2q20 -14 14 -29q-5 -12 -16 -31t-17.5 -35.5t-9.5 -35.5q0 -33 74 23q11 8 14 10q73 62 96 100q17 15 26 9t-2 -25q-25 -44 -102 -107q-19 -14 -31 -21.5t-34 -18t-38.5 -5.5t-25.5 25q-4 9 -4 49q-102 -150 -160 -152 q-21 -1 -31 24.5t-8.5 53.5z" />
<glyph unicode="&#xfc;" horiz-adv-x="372" d="M-31.5 176q1.5 28 2.5 45q5 27 31 121q5 17 19 20.5t24.5 -7t5.5 -27.5l-12 -30q-66 -160 -38 -175q5 -3 11 -2q28 3 99.5 91.5t87.5 127.5q6 15 25 2q20 -14 14 -29q-5 -12 -16 -31t-17.5 -35.5t-9.5 -35.5q0 -33 74 23q11 8 14 10q73 62 96 100q17 15 26 9t-2 -25 q-25 -44 -102 -107q-19 -14 -31 -21.5t-34 -18t-38.5 -5.5t-25.5 25q-4 9 -4 49q-102 -150 -160 -152q-21 -1 -31 24.5t-8.5 53.5zM14 467q0 17 12 29t29 12t29 -12t12 -29t-12 -29t-29 -12t-29 12t-12 29zM166 469q0 17 12 29t29 12t29 -12t12 -29t-12 -29t-29 -12t-29 12 t-12 29z" />
<glyph unicode="&#xfd;" horiz-adv-x="581" d="M-485 -1102q80 2 252 367q88 190 131 299l30 74q-67 -73 -145 -187q-84 -124 -152 -244q-154 -309 -116 -309zM-485 -1116q-84 -4 94 342q67 123 149 242q82 121 201 247q147 367 197 473q-41 -48 -68 -67q-34 -27 -57 -27q-18 0 -31 6.5t-20 19t-10.5 26t-2 34t3 36.5 t7 38.5t8.5 34.5t9 31.5t7 23.5q3 11 9.5 16t14 3.5t14.5 -5.5t10 -12t1 -16q-2 -6 -12.5 -33t-20 -54.5t-17 -57t-4.5 -48.5t19 -20q20 -3 62 30q54 48 117 146q12 16 36 74q19 41 48 94q19 37 45 74q7 11 17.5 27t29 36t28.5 20q6 -1 5 -10t-7 -30l-16 -37 q-66 -129 -113 -193l-26 -39q-1 -2 -23 -35q-67 -208 -170 -471q43 39 129 113q91 80 137.5 122.5t126.5 128t148 177.5q13 13 22 6t0 -22q-69 -93 -147.5 -178t-129.5 -132t-138 -122q-112 -100 -174 -158q-44 -116 -78 -193q-50 -123 -144 -301q-187 -358 -286 -360z M81 544q0 1 3 1q34 8 66 33q28 29 42.5 46t31 45.5t20.5 55.5q2 9 12 11.5t19 -2t8 -13.5q-6 -44 -42 -86.5t-83 -71.5q-42 -22 -74 -20q-3 0 -3 1z" />
<glyph unicode="&#xff;" horiz-adv-x="581" d="M-485 -1102q80 2 252 367q88 190 131 299l30 74q-67 -73 -145 -187q-84 -124 -152 -244q-154 -309 -116 -309zM-485 -1116q-84 -4 94 342q67 123 149 242q82 121 201 247q147 367 197 473q-41 -48 -68 -67q-34 -27 -57 -27q-18 0 -31 6.5t-20 19t-10.5 26t-2 34t3 36.5 t7 38.5t8.5 34.5t9 31.5t7 23.5q3 11 9.5 16t14 3.5t14.5 -5.5t10 -12t1 -16q-2 -6 -12.5 -33t-20 -54.5t-17 -57t-4.5 -48.5t19 -20q20 -3 62 30q54 48 117 146q12 16 36 74q19 41 48 94q19 37 45 74q7 11 17.5 27t29 36t28.5 20q6 -1 5 -10t-7 -30l-16 -37 q-66 -129 -113 -193l-26 -39q-1 -2 -23 -35q-67 -208 -170 -471q43 39 129 113q91 80 137.5 122.5t126.5 128t148 177.5q13 13 22 6t0 -22q-69 -93 -147.5 -178t-129.5 -132t-138 -122q-112 -100 -174 -158q-44 -116 -78 -193q-50 -123 -144 -301q-187 -358 -286 -360z M33 530q0 17 12 29t29 12t29 -12t12 -29t-12 -29t-29 -12t-29 12t-12 29zM184 532q0 17 12 29t29 12t29 -12t12 -29t-12 -28.5t-29 -11.5t-29 11.5t-12 28.5z" />
<glyph unicode="&#x152;" horiz-adv-x="2482" d="M-1.5 55.5q-4.5 103.5 8 194.5t40.5 201q49 163 116 290.5t171 243.5q59 129 155 252q99 113 220 182q88 44 171.5 61.5t171 1.5t154.5 -75q47 -44 72 -95.5t41 -123.5q13 -94 14.5 -170t-13.5 -166.5t-35 -165t-50 -164.5q-65 -180 -145.5 -326.5t-192.5 -281.5 q75 29 147 80q82 56 154 131q122 222 330 412q168 145 319 208h-26q-77 3 -129 31q-43 26 -59 71t-7 98.5t23.5 96t36.5 86.5q59 118 163 228q111 111 242 178q142 69 283 72q57 -3 94 -17q35 -10 69 -37q29 -29 41 -59q14 -33 17 -68q3 -71 -33 -147t-90 -133 q-11 -11 -6 -3q1 2 4 7q41 64 67 137q21 84 13 135q-3 27 -17 52q-12 20 -30 36q-26 17 -54 23q-27 8 -75 8q-122 -5 -252 -67q-116 -59 -232 -160q-103 -93 -174 -201q-25 -38 -42 -75t-28 -82.5t4 -86t58 -65.5q46 -27 113 -27q53 -3 121 12q21 3 104 25q34 10 37 -4 q3 -12 -21 -22q-5 -2 -10 -3q-21 -6 -56.5 -14.5t-61 -17t-52.5 -23.5q-80 -40 -153.5 -96t-159.5 -137q-120 -121 -206.5 -241t-160.5 -269q-58 -120 -92 -254q-24 -126 -10 -213q16 -79 60.5 -128t106.5 -64t132.5 -6.5t142.5 40.5q211 91 477 381q93 100 182 213 t185 245.5t104 143.5q15 15 25 9t0 -25q-21 -28 -107.5 -148.5t-179.5 -239.5t-186 -219q-278 -299 -494 -391q-71 -30 -147 -36t-145.5 11.5t-123.5 70t-75 132.5q-24 99 -4 236q24 129 88 270l14 29q-56 -46 -94 -74q-102 -67 -201 -100q-131 -141 -250 -211 q-133 -73 -248.5 -77.5t-203 64.5t-129.5 208q-26 99 -30.5 202.5zM55.5 56.5q-3.5 -103.5 16.5 -191.5q31 -133 111.5 -201.5t188.5 -63t222 82.5q100 71 180 163q-151 -26 -278 36.5t-207 223.5q-40 91 -56.5 187.5t-14 184.5t19.5 196q14 67 26 110q-82 -143 -149 -352 q-28 -106 -42 -189t-17.5 -186.5zM267 390.5q6 -141.5 55 -269.5q73 -168 200.5 -223.5t280.5 -16.5l16 21q213 276 350 645q63 177 92 329t13 304q-19 129 -86 209q-61 60 -146 76.5t-164.5 -2.5t-156.5 -64q-108 -68 -201 -187q-46 -59 -88 -135q81 66 180 103 q133 45 273 22q15 -3 14.5 -4.5t-14.5 0.5q-132 8 -260 -47q-116 -58 -222 -170q-29 -34 -41 -51q-41 -103 -75 -264q-26 -134 -20 -275.5z" />
<glyph unicode="&#x153;" horiz-adv-x="892" d="M-70 127q17 152 101 252q19 20 43.5 -3.5t7.5 -43.5q-65 -76 -107 -213q-14 -50 -13 -81t11 -44.5t27 -13.5q47 1 92 53.5t78 132.5q-50 40 -69 111.5t5 142.5q9 25 30 41t44 16q25 4 43 -20q28 -39 24 -115t-36 -158q66 -56 164 25q20 16 35 31q38 96 106.5 169.5 t126.5 73.5q40 -1 55 -27t7.5 -61t-29.5 -69q-27 -38 -70 -65.5t-88 -33.5q-21 -3 -39 0q-2 0 -5 1t-5 1q-19 -43 -29.5 -80t-12 -68t13.5 -49t46 -18q74 -1 212 121t202 209q9 11 20.5 3.5t4.5 -19.5q-36 -49 -109.5 -124.5t-166.5 -144.5t-146 -69q-58 1 -89.5 28t-34 70 t10.5 96q-105 -84 -194 -37q-37 -81 -87 -133.5t-104 -52.5q-41 0 -63 41.5t-13 124.5zM137 414q-3 -130 49 -203q16 47 23 89.5t5 71.5t-9.5 50t-17.5 31t-21 10q-29 -4 -29 -49zM473 238h6l33 8q86 36 147 94q21 22 28.5 50.5t-3.5 47t-39 13.5q-33 -7 -82.5 -70 t-89.5 -143z" />
<glyph unicode="&#x178;" horiz-adv-x="1759" d="M2 -715q13 72 64 146q95 136 300 253.5t511 176.5q87 15 196 43q118 190 262 479q49 103 287 690q-162 -305 -317 -508q-175 -225 -342 -317q-91 -51 -187 -51q-82 2 -136.5 51t-61.5 145q-4 67 13 148.5t35 133t54 140.5q11 27 80.5 188t99.5 248q36 110 27.5 170 t-45 81.5t-96.5 9.5t-128 -46t-139 -86q-177 -135 -301 -317q-61 -93 -95.5 -173t-41.5 -171q0 -85 31 -146q41 -65 112 -104q9 -5 9 -6t-9 2q-84 35 -129 98q-44 64 -47 156q0 98 32.5 185.5t94.5 187.5q70 101 146 177t176 144q80 50 153 80.5t139 38t107.5 -20t58 -92.5 t-9.5 -180q-10 -45 -23 -89t-33 -98t-30.5 -81.5t-39 -96t-34.5 -83.5q-35 -84 -53.5 -132.5t-40 -126t-26.5 -139.5q-1 -86 41 -127t112 -41q82 -3 174 49q156 84 328 310q262 339 510 917q10 24 21.5 31t18 -5.5t1.5 -39.5q-33 -156 -203.5 -580.5t-230.5 -552.5 q-125 -258 -228 -424q101 29 201 78q230 110 397 336q15 15 25 9t0 -25q-178 -234 -408 -346q-105 -51 -239 -91q-130 -212 -295 -397q-358 -391 -686 -391q-84 0 -129 50.5t-33 131.5zM33 -721q-12 -70 29 -111.5t114 -41.5q70 -1 145 25t140.5 66t132 96t117 107.5 t98.5 108.5q119 146 242 338q-121 -26 -170 -35q-300 -59 -500 -172.5t-291 -245.5q-48 -71 -57 -135zM1206 1571q0 17 12 29t29 12t29 -12t12 -29t-12 -29t-29 -12t-29 12t-12 29zM1358 1573q0 17 12 29t29 12t29 -12t12 -29t-12 -29t-29 -12t-29 12t-12 29z" />
<glyph unicode="&#x2000;" horiz-adv-x="951" />
<glyph unicode="&#x2001;" horiz-adv-x="1902" />
<glyph unicode="&#x2002;" horiz-adv-x="951" />
<glyph unicode="&#x2003;" horiz-adv-x="1902" />
<glyph unicode="&#x2004;" horiz-adv-x="634" />
<glyph unicode="&#x2005;" horiz-adv-x="475" />
<glyph unicode="&#x2006;" horiz-adv-x="317" />
<glyph unicode="&#x2007;" horiz-adv-x="317" />
<glyph unicode="&#x2008;" horiz-adv-x="237" />
<glyph unicode="&#x2009;" horiz-adv-x="380" />
<glyph unicode="&#x200a;" horiz-adv-x="105" />
<glyph unicode="&#x2010;" horiz-adv-x="819" d="M81 317.5q0 1.5 9 4.5q312 59 623 0q9 -3 9 -4.5t-9 -4.5q-311 -53 -623 0q-9 3 -9 4.5z" />
<glyph unicode="&#x2011;" horiz-adv-x="819" d="M81 317.5q0 1.5 9 4.5q312 59 623 0q9 -3 9 -4.5t-9 -4.5q-311 -53 -623 0q-9 3 -9 4.5z" />
<glyph unicode="&#x2012;" horiz-adv-x="819" d="M81 317.5q0 1.5 9 4.5q312 59 623 0q9 -3 9 -4.5t-9 -4.5q-311 -53 -623 0q-9 3 -9 4.5z" />
<glyph unicode="&#x2013;" horiz-adv-x="1202" d="M81 317.5q0 1.5 14 4.5q499 59 996 0q14 -3 14 -4.5t-14 -4.5q-497 -53 -996 0q-14 3 -14 4.5z" />
<glyph unicode="&#x2014;" horiz-adv-x="2226" d="M81 317.5q0 1.5 29 4.5q997 59 1990 0q29 -3 29 -4.5t-29 -4.5q-993 -53 -1990 0q-29 3 -29 4.5z" />
<glyph unicode="&#x2018;" horiz-adv-x="186" d="M63 1237q0 24 13 47q15 22 28 31q20 10 37 10q24 -3 35 -12v-2q-15 2 -31 -4q-13 -5 -22 -17q-8 -8 -10 -12q30 -7 30 -41q0 -17 -11 -29t-28 -12t-29 12t-12 29z" />
<glyph unicode="&#x2019;" horiz-adv-x="217" d="M66 1208v2q14 -2 30 4q15 6 23 17q8 8 10 12q-14 3 -22.5 14.5t-8.5 26.5q0 17 11 29t28 12t29 -12t12 -29q0 -26 -12 -47q-14 -21 -29 -31q-20 -10 -37 -10q-23 3 -34 12z" />
<glyph unicode="&#x201a;" horiz-adv-x="262" d="M43 -86q21 0 31 4q14 6 22 16q8 8 10 15q-13 3 -21.5 14t-8.5 25q0 17 11 29t28 12t29 -12t12 -29q0 -24 -13 -47q-12 -19 -28 -29q-15 -10 -37 -10q-18 0 -35 10q-2 2 0 2z" />
<glyph unicode="&#x201c;" horiz-adv-x="299" d="M47 1237q0 26 12 47q14 21 29 31q20 10 37 10q24 -3 35 -12v-2q-15 2 -31 -4q-15 -6 -23 -17q-8 -8 -10 -12q14 -3 22.5 -14.5t8.5 -26.5q0 -17 -11 -29t-28 -12t-29 12t-12 29zM168 1237q0 26 12 47q14 21 29 31q20 10 37 10q24 -3 35 -12v-2q-15 2 -31 -4 q-15 -6 -23 -17q-8 -8 -10 -12q14 -3 22.5 -14.5t8.5 -26.5q0 -17 -11 -29t-28 -12t-29 12t-12 29z" />
<glyph unicode="&#x201d;" horiz-adv-x="405" d="M80 1208v2q15 -2 31 4q13 5 22 17q8 8 10 12q-30 7 -30 41q0 17 11 29t28 12t29 -12t12 -29q0 -24 -13 -47q-15 -22 -28 -31q-20 -10 -37 -10q-24 3 -35 12zM201 1208v2q14 -2 30 4q15 6 23 17q8 8 10 12q-14 3 -22.5 14.5t-8.5 26.5q0 17 11 29t28 12t29 -12t12 -29 q0 -26 -12 -47q-14 -21 -29 -31q-20 -10 -36 -10q-24 3 -35 12z" />
<glyph unicode="&#x201e;" horiz-adv-x="333" d="M27 -39q14 -2 30 4q15 6 23 17q8 8 10 12q-14 3 -23.5 14.5t-9.5 26.5q0 17 12 29t29 12t29 -12t12 -29q0 -26 -12 -47q-14 -21 -29 -31q-20 -10 -37 -10q-23 3 -34 12v2zM133 -39q14 -2 33 4q10 5 22 17q2 2 5.5 6t5.5 6q-14 3 -23.5 14.5t-9.5 26.5q0 17 12 29t29 12 t29 -12t12 -29q0 -19 -12 -47q-14 -21 -31 -31q-20 -10 -37 -10q-22 3 -35 12v2z" />
<glyph unicode="&#x2026;" horiz-adv-x="712" d="M68 8q0 17 12 29t29 12t29 -12t12 -29t-12 -29t-29 -12t-29 12t-12 29zM305 8q0 17 12 29t29 12t29 -12t12 -29t-12 -29t-29 -12t-29 12t-12 29zM543 8q0 17 12 29t29 12t29 -12t12 -29t-12 -29t-29 -12t-29 12t-12 29z" />
<glyph unicode="&#x202f;" horiz-adv-x="380" />
<glyph unicode="&#x205f;" horiz-adv-x="475" />
<glyph unicode="&#x20ac;" horiz-adv-x="1062" d="M0 170l6 2q86 15 174 21l21 61l30 76q-94 7 -168 20q-6 2 0 4q110 18 189 23q97 214 227 381q81 104 172 172q92 66 183 74q37 0 63 -9q32 -10 53 -28q49 -41 64 -107q12 -66 -4 -155q-24 -92 -80 -181l-2 -3q-1 1 0 5q38 93 49 185q10 78 -8 137q-16 52 -49 80 q-5 4 -39 18q-14 4 -45 4q-73 -5 -154 -63q-80 -60 -164 -160q-123 -154 -219 -348q157 3 315 -25q4 -2 0 -4q-171 -31 -340 -22l-36 -88q-14 -32 -17 -45q171 6 330 -23q10 -2 0 -4q-179 -32 -348 -23q-72 -209 -72 -364q0 -123 53 -185.5t138 -62.5q69 0 143 41t133 113 q113 154 158 344q6 18 20 21.5t25 -7t8 -27.5q-27 -107 -69.5 -191.5t-112.5 -164.5q-66 -70 -144.5 -109.5t-152.5 -39.5q-98 0 -159.5 76.5t-61.5 230.5q0 144 57 327q-81 6 -160 21z" />
<glyph unicode="&#x25fc;" horiz-adv-x="716" d="M0 0v717h717v-717h-717z" />
</font>
</defs>
</svg>
